Ticket #10300: videoinfo-mediainfo.txt

File videoinfo-mediainfo.txt, 5.3 KB (added by Jason Gillis <gillisj+mythtv@…>, 10 years ago)

Video info from media info (on Windows)

Line 
1General
2Complete name                            : V:\Action\Captain America.m4v
3Format                                   : MPEG-4
4Format profile                           : Base Media / Version 2
5Codec ID                                 : mp42
6File size                                : 1.32 GiB
7Duration                                 : 2h 4mn
8Overall bit rate mode                    : Variable
9Overall bit rate                         : 1 519 Kbps
10Encoded date                             : UTC 2011-11-24 01:56:40
11Tagged date                              : UTC 2011-11-24 02:18:39
12Writing application                      : HandBrake 0.9.5 2011010300
13
14Video
15ID                                       : 1
16Format                                   : AVC
17Format/Info                              : Advanced Video Codec
18Format profile                           : High@L3.0
19Format settings, CABAC                   : Yes
20Format settings, ReFrames                : 4 frames
21Codec ID                                 : avc1
22Codec ID/Info                            : Advanced Video Coding
23Duration                                 : 2h 4mn
24Bit rate mode                            : Variable
25Bit rate                                 : 736 Kbps
26Width                                    : 720 pixels
27Height                                   : 368 pixels
28Display aspect ratio                     : 2.35:1
29Original display aspect ratio            : 2.35:1
30Frame rate mode                          : Variable
31Frame rate                               : 23.976 fps
32Minimum frame rate                       : 11.989 fps
33Maximum frame rate                       : 29.970 fps
34Color space                              : YUV
35Chroma subsampling                       : 4:2:0
36Bit depth                                : 8 bits
37Scan type                                : Progressive
38Bits/(Pixel*Frame)                       : 0.116
39Stream size                              : 654 MiB (48%)
40Writing library                          : x264 core 112
41Encoding settings                        : cabac=1 / ref=3 / deblock=1:0:0 / analyse=0x3:0x113 / me=hex / subme=7 / psy=1 / psy_rd=1.00:0.00 / mixed_ref=1 / me_range=16 / chroma_me=1 / trellis=1 / 8x8dct=1 / cqm=0 / deadzone=21,11 / fast_pskip=1 / chroma_qp_offset=-2 / threads=12 / sliced_threads=0 / nr=0 / decimate=1 / interlaced=0 / constrained_intra=0 / bframes=3 / b_pyramid=2 / b_adapt=2 / b_bias=0 / direct=1 / weightb=1 / open_gop=0 / weightp=2 / keyint=240 / keyint_min=23 / scenecut=40 / intra_refresh=0 / rc_lookahead=50 / rc=crf / mbtree=1 / crf=20.0 / qcomp=0.60 / qpmin=3 / qpmax=51 / qpstep=4 / ip_ratio=1.40 / aq=1:1.00
42Encoded date                             : UTC 2011-11-24 01:56:40
43Tagged date                              : UTC 2011-11-24 02:18:39
44Color primaries                          : BT.601-6 525, BT.1358 525, BT.1700 NTSC, SMPTE 170M
45Transfer characteristics                 : BT.709-5, BT.1361
46Matrix coefficients                      : BT.601-6 525, BT.1358 525, BT.1700 NTSC, SMPTE 170M
47
48Audio #1
49ID                                       : 2
50Format                                   : AC-3
51Format/Info                              : Audio Coding 3
52Mode extension                           : CM (complete main)
53Codec ID                                 : ac-3
54Duration                                 : 2h 4mn
55Bit rate mode                            : Constant
56Bit rate                                 : 448 Kbps
57Channel(s)                               : 6 channels
58Channel positions                        : Front: L C R, Side: L R, LFE
59Sampling rate                            : 48.0 KHz
60Bit depth                                : 16 bits
61Compression mode                         : Lossy
62Stream size                              : 398 MiB (30%)
63Language                                 : English
64Encoded date                             : UTC 2011-11-24 01:56:40
65Tagged date                              : UTC 2011-11-24 02:18:38
66
67Audio #2
68ID                                       : 3
69Format                                   : AAC
70Format/Info                              : Advanced Audio Codec
71Format profile                           : LC
72Codec ID                                 : 40
73Duration                                 : 2h 4mn
74Bit rate mode                            : Variable
75Bit rate                                 : 328 Kbps
76Maximum bit rate                         : 499 Kbps
77Channel(s)                               : 2 channels
78Channel positions                        : Front: L R
79Sampling rate                            : 48.0 KHz
80Compression mode                         : Lossy
81Stream size                              : 292 MiB (22%)
82Language                                 : English
83Encoded date                             : UTC 2011-11-24 01:56:40
84Tagged date                              : UTC 2011-11-24 02:18:38
85
86Text
87ID                                       : 4
88Format                                   : Apple text
89Codec ID                                 : text
90Duration                                 : 2h 4mn
91Bit rate mode                            : Constant
92Bit rate                                 : 0
93Stream size                              : 408 Bytes (0%)
94Encoded date                             : UTC 2011-11-24 01:56:40
95Tagged date                              : UTC 2011-11-24 02:18:38
96