Ticket #10300: videoinfo-mythffmpeg.txt

File videoinfo-mythffmpeg.txt, 3.3 KB (added by Jason Gillis <gillisj+mythtv@…>, 10 years ago)

Video info (mythffmpeg)

Line 
1root@mini2:~# mythffmpeg -i /nas/video/Action/Captain\ America.m4v
2FFmpeg version UNKNOWN, Copyright (c) 2000-2010 the FFmpeg developers
3  built on Jan 24 2012 00:27:29 with gcc 4.4.3
4  configuration: --compile-type=profile --prefix=/usr --runprefix=/usr --enable-crystalhd --enable-lirc --enable-audio-alsa --enable-audio-oss --enable-dvb --enable-ivtv --enable-firewire --enable-joystick-menu --with-bindings=perl --enable-ffmpeg-pthreads --enable-pic --perl-config-opts='INSTALLDIRS=vendor' --enable-opengl-vsync --enable-opengl-video --cpu=i686 --enable-mmx --disable-xvmc --enable-vdpau
5  libavutil     50.24. 0 / 50.24. 0
6  libavcore      0. 6. 0 /  0. 6. 0
7  libavcodec    52.86. 1 / 52.86. 1
8  libavformat   52.78. 3 / 52.78. 3
9  libavdevice   52. 2. 1 / 52. 2. 1
10  libavfilter    1.37. 0 /  1.37. 0
11  libswscale     0.11. 0 /  0.11. 0
12  libpostproc   51. 2. 0 / 51. 2. 0
13[mov,mp4,m4a,3gp,3g2,mj2 @ 0x8df26b0] max_analyze_duration reached
14
15Seems stream 0 codec frame rate differs from container frame rate: 180000.00 (180000/1) -> 90000.00 (180000/2)
16Input #0, mov,mp4,m4a,3gp,3g2,mj2, from '/nas/video/Action/Captain America.m4v':
17  Metadata:
18    major_brand     : mp42
19    minor_version   : 0
20    compatible_brands: mp42isomavc1
21    encoder         : HandBrake 0.9.5 2011010300
22  Duration: 02:04:10.07, start: 0.000000, bitrate: 1518 kb/s
23    Chapter #0.0: start -0.116789, end 491.157333
24    Metadata:
25      title           : Chapter  1
26    Chapter #0.1: start 491.157333, end 895.895000
27    Metadata:
28      title           : Chapter  2
29    Chapter #0.2: start 895.895000, end 1460.625833
30    Metadata:
31      title           : Chapter  3
32    Chapter #0.3: start 1460.625833, end 1838.169667
33    Metadata:
34      title           : Chapter  4
35    Chapter #0.4: start 1838.169667, end 2318.849867
36    Metadata:
37      title           : Chapter  5
38    Chapter #0.5: start 2318.849867, end 2751.248500
39    Metadata:
40      title           : Chapter  6
41    Chapter #0.6: start 2751.248500, end 3117.147367
42    Metadata:
43      title           : Chapter  7
44    Chapter #0.7: start 3117.147367, end 3474.637833
45    Metadata:
46      title           : Chapter  8
47    Chapter #0.8: start 3474.637833, end 3838.343756
48    Metadata:
49      title           : Chapter  9
50    Chapter #0.9: start 3838.343756, end 4341.679922
51    Metadata:
52      title           : Chapter 10
53    Chapter #0.10: start 4341.679922, end 4749.754256
54    Metadata:
55      title           : Chapter 11
56    Chapter #0.11: start 4749.754256, end 5306.143422
57    Metadata:
58      title           : Chapter 12
59    Chapter #0.12: start 5306.143422, end 5632.002289
60    Metadata:
61      title           : Chapter 13
62    Chapter #0.13: start 5632.002289, end 6139.342456
63    Metadata:
64      title           : Chapter 14
65    Chapter #0.14: start 6139.342456, end 6644.146756
66    Metadata:
67      title           : Chapter 15
68    Chapter #0.15: start 6644.146756, end 6825.327756
69    Metadata:
70      title           : Chapter 16
71    Chapter #0.16: start 6825.327756, end 7449.801600
72    Metadata:
73      title           : Chapter 18
74    Stream #0.0(und): Video: h264, yuv420p, 720x368 [PAR 32:27 DAR 160:69], 735 kb/s, 23.97 fps, 90k tbr, 90k tbn, 180k tbc
75    Stream #0.1(eng): Audio: ac3, 48000 Hz, 2 channels, s16, 448 kb/s
76    Stream #0.2(eng): Audio: aac, 48000 Hz, stereo, s16, 328 kb/s
77    Stream #0.3(und): Subtitle: text / 0x74786574