Ticket #11048: segfault-ffmpeg-i.txt

File segfault-ffmpeg-i.txt, 2.4 KB (added by Andy Boff <mythtv@…>, 8 years ago)

ffmpeg -i of affected file

Line 
1ffmpeg -i 5009_20120808200000.mpg
2ffmpeg version 0.8.3-4:0.8.3-0ubuntu0.12.04.1, Copyright (c) 2000-2012 the Libav developers
3  built on Jun 12 2012 16:37:58 with gcc 4.6.3
4*** THIS PROGRAM IS DEPRECATED ***
5This program is only provided for compatibility and will be removed in a future release. Please use avconv instead.
6[mpegts @ 0x86f0aa0] Continuity check failed for pid 400 expected 2 got 11
7[mpegts @ 0x86f0aa0] Continuity check failed for pid 0 expected 12 got 6
8[mpegts @ 0x86f0aa0] max_analyze_duration reached
9[NULL @ 0x86f8560] start time is not set in estimate_timings_from_pts
10[NULL @ 0x870db80] start time is not set in estimate_timings_from_pts
11[NULL @ 0x870fa00] start time is not set in estimate_timings_from_pts
12[NULL @ 0x8711920] start time is not set in estimate_timings_from_pts
13[NULL @ 0x8713820] start time is not set in estimate_timings_from_pts
14[NULL @ 0x8715740] start time is not set in estimate_timings_from_pts
15[NULL @ 0x8717640] start time is not set in estimate_timings_from_pts
16[NULL @ 0x8719560] start time is not set in estimate_timings_from_pts
17[NULL @ 0x871b460] start time is not set in estimate_timings_from_pts
18[NULL @ 0x871d380] start time is not set in estimate_timings_from_pts
19[NULL @ 0x871f280] start time is not set in estimate_timings_from_pts
20[mpegts @ 0x86f0aa0] PES packet size mismatch
21Input #0, mpegts, from '5009_20120808200000.mpg':
22  Duration: 01:00:01.50, start: 70257.108244, bitrate: 3528 kb/s
23  Program 1
24    Stream #0.0[0x191]: Video: mpeg2video (Main), yuv420p, 544x576 [PAR 32:17 DAR 16:9], 15000 kb/s, 25 fps, 25 tbr, 90k tbn, 50 tbc
25    Stream #0.1[0x192](eng): Audio: mp2, 48000 Hz, stereo, s16, 192 kb/s
26    Stream #0.2[0x196](eng): Audio: mp3, 0 channels, s16 (visual impaired)
27    Stream #0.3[0x195](eng): Subtitle: dvbsub
28    Stream #0.4[0x1c2]: Data: [5][0][0][0] / 0x0005
29    Stream #0.5[0x19a]: Data: [11][0][0][0] / 0x000B
30    Stream #0.6[0x19b]: Data: [11][0][0][0] / 0x000B
31    Stream #0.7[0x19f]: Data: [13][0][0][0] / 0x000D
32    Stream #0.8[0x1ce9]: Data: [11][0][0][0] / 0x000B
33    Stream #0.9[0x1c21]: Data: [11][0][0][0] / 0x000B
34    Stream #0.10[0x1c22]: Data: [11][0][0][0] / 0x000B
35    Stream #0.11[0x1c23]: Data: [11][0][0][0] / 0x000B
36    Stream #0.12[0x1c24]: Data: [11][0][0][0] / 0x000B
37    Stream #0.13[0x1c25]: Data: [11][0][0][0] / 0x000B
38At least one output file must be specified