Ticket #11048: segfault-mediainfo.txt

File segfault-mediainfo.txt, 3.1 KB (added by Andy Boff <mythtv@…>, 8 years ago)

Mediainfo of affected file

Line 
1> mediainfo  5009_20120808200000.mpg
2General
3ID                                       : 4163 (0x1043)
4Complete name                            : 5009_20120808200000.mpg
5Format                                   : MPEG-TS
6File size                                : 1.48 GiB
7Duration                                 : 1h 0mn
8Overall bit rate mode                    : Variable
9Overall bit rate                         : 3 530 Kbps
10
11Video
12ID                                       : 401 (0x191)
13Menu ID                                  : 1 (0x1)
14Format                                   : MPEG Video
15Format version                           : Version 2
16Format profile                           : Main@Main
17Format settings, BVOP                    : Yes
18Format settings, Matrix                  : Custom
19Format settings, GOP                     : M=3, N=36
20Codec ID                                 : 2
21Duration                                 : 1h 0mn
22Bit rate mode                            : Variable
23Bit rate                                 : 3 161 Kbps
24Maximum bit rate                         : 15.0 Mbps
25Width                                    : 544 pixels
26Height                                   : 576 pixels
27Display aspect ratio                     : 16:9
28Active Format Description                : Pillarbox 4:3 image
29Frame rate                               : 25.000 fps
30Color space                              : YUV
31Chroma subsampling                       : 4:2:0
32Bit depth                                : 8 bits
33Scan type                                : Interlaced
34Scan order                               : Top Field First
35Compression mode                         : Lossy
36Bits/(Pixel*Frame)                       : 0.404
37Stream size                              : 1.33 GiB (90%)
38
39Audio
40ID                                       : 402 (0x192)
41Menu ID                                  : 1 (0x1)
42Format                                   : MPEG Audio
43Format version                           : Version 1
44Format profile                           : Layer 2
45Mode                                     : Joint stereo
46Mode extension                           : Intensity Stereo + MS Stereo
47Codec ID                                 : 3
48Duration                                 : 1h 0mn
49Bit rate mode                            : Constant
50Bit rate                                 : 192 Kbps
51Channel(s)                               : 2 channels
52Sampling rate                            : 48.0 KHz
53Compression mode                         : Lossy
54Delay relative to video                  : -784ms
55Stream size                              : 82.4 MiB (5%)
56Language                                 : English
57
58Text
59ID                                       : 405 (0x195)
60Menu ID                                  : 1 (0x1)
61Format                                   : DVB Subtitle
62Codec ID                                 : 6
63Duration                                 : 59mn 56s
64Delay relative to video                  : 3s 537ms
65Language                                 : English
66
67