Ticket #11548: mythburn.log

File mythburn.log, 39.6 KB (added by Mark Munkacsy <Mark_Munkacsy@…>, 8 years ago)
Line 
1Using simple_fix_rtl
2mythburn.py (0.1.20120304-1) starting up...
3script path:/usr/share/mythtv/mytharchive/scripts
4myth share path:/usr/share/mythtv
5passed job file: /var/lib/mytharchive/temp/config/mydata.xml
6passed progress log file: /var/lib/mytharchive/temp/logs/progress.log
7mythburn.py (0.1.20120304-1) starting up...
8Found 4 CPUs
9Obtaining MythTV settings from MySQL database for hostname htpc
10temppath: /var/lib/mytharchive/temp/work
11logpath:  /var/lib/mytharchive/temp/logs
12Setting process priority to 17
13Processing Mythburn job number 1.
14Options - mediatype = 0, doburn = 1, createiso = 0, erasedvdrw = 0
15          savefilename = ''
16Looking for: /usr/share/mythtv/mytharchive/themes/Black/theme.xml
17Loading font 0, /usr/share/mythtv/fonts/FreeSans.ttf size 18
18Loading font 1, /usr/share/mythtv/fonts/FreeSans.ttf size 13
19wantIntro: 1, wantMainMenu: 1, wantChapterMenu: 0, wantDetailsPage: 0
20Final DVD Video format will be ntsc
21There are 4 file(s) to process
22Pre-processing recording 1: '/home/video/drive0/video/recordings/2443_20130426143000.mpg'
23[mpegts @ 0x1ff2620] PES packet size mismatch
24[mpegts @ 0x1ff2620] PES packet size mismatch
25Input #0, mpegts, from '/home/video/drive0/video/recordings/2443_20130426143000.mpg':
26  Duration: 00:30:00.35, start: 58696.434522, bitrate: 3220 kb/s
27    Stream #0:0[0x41]: Video: mpeg2video (Main), yuv420p, 704x480 [SAR 10:11 DAR 4:3], 15000 kb/s, 29.97 fps, 29.97 tbr, 90k tbn, 59.94 tbc
28    Stream #0:1[0x44](eng): Audio: ac3 (AC[45]3 / 0x332D4341), 48000 Hz, stereo, s16, 192 kb/s
29    Stream #0:2[0x45](eng): Audio: ac3 (AC[45]3 / 0x332D4341), 48000 Hz, mono, s16, 128 kb/s
30/var/lib/mytharchive/temp/work/1/streaminfo.xml:-
31<?xml version="1.0" ?><!DOCTYPE FILEINFO><file cutduration="1800" duration="1800" filename="/home/video/drive0/video/recordings/2443_20130426143000.mpg" type="mpegts">   
32        <streams count="3">       
33                <video aspectratio="1.33333" bitrate="15000000" codec="mpeg2video (Main)" ffmpegindex="0" fps="29.97" height="480" id="65" start_time="5282.729349" streamindex="0" width="704"/>       
34                <audio bitrate="192000" channels="2" codec="ac3 (AC[45]3 / 0x332D4341)" ffmpegindex="1" id="68" language="eng" samplerate="48000" start_time="5282.679107" streamindex="1"/>       
35                <audio bitrate="128000" channels="1" codec="ac3 (AC[45]3 / 0x332D4341)" ffmpegindex="2" id="69" language="eng" samplerate="48000" start_time="5282.681223" streamindex="2"/>       
36        </streams>   
37</file>
38          The American Woodshop
39Node = chanid, Data = 2443
40Node = type, Data = recording
41Node = filename, Data = /home/video/drive0/video/recordings/2443_20130426143000.mpg
42Node = title, Data = The American Woodshop
43Node = recordingdate, Data = Fri Apr 26 2013
44Node = recordingtime, Data = 10:30 AM
45Node = subtitle, Data = Outdoor Accents
46Node = description, Data = Accents for garage doors, decks and home trim.
47Node = rating, Data = 0.0
48Node = coverfile, Data =
49Node = cutlist, Data =
50Node = starttime, Data = 2013-04-26T10:30:00-04:00
51Node = hascutlist, Data = no
52Video resolution is 704 by 480
53Pre-processing recording 2: '/home/video/drive0/video/recordings/2443_20130513143000.mpg'
54[mpegts @ 0x12f03c0] PES packet size mismatch
55[mpegts @ 0x12f03c0] PES packet size mismatch
56[mpegts @ 0x12f03c0] PES packet size mismatch
57[mpegts @ 0x12f03c0] PES packet size mismatch
58Input #0, mpegts, from '/home/video/drive0/video/recordings/2443_20130513143000.mpg':
59  Duration: 00:30:00.31, start: 398.231500, bitrate: 3221 kb/s
60    Stream #0:0[0x41]: Video: mpeg2video (Main), yuv420p, 704x480 [SAR 10:11 DAR 4:3], 15000 kb/s, 29.97 fps, 29.97 tbr, 90k tbn, 59.94 tbc
61    Stream #0:1[0x44](eng): Audio: ac3 (AC[45]3 / 0x332D4341), 48000 Hz, stereo, s16, 192 kb/s
62    Stream #0:2[0x45](eng): Audio: ac3 (AC[45]3 / 0x332D4341), 48000 Hz, mono, s16, 128 kb/s
63/var/lib/mytharchive/temp/work/2/streaminfo.xml:-
64<?xml version="1.0" ?><!DOCTYPE FILEINFO><file cutduration="1800" duration="1800" filename="/home/video/drive0/video/recordings/2443_20130513143000.mpg" type="mpegts">   
65        <streams count="3">       
66                <video aspectratio="1.33333" bitrate="15000000" codec="mpeg2video (Main)" ffmpegindex="0" fps="29.97" height="480" id="65" start_time="35.895938" streamindex="0" width="704"/>       
67                <audio bitrate="192000" channels="2" codec="ac3 (AC[45]3 / 0x332D4341)" ffmpegindex="1" id="68" language="eng" samplerate="48000" start_time="35.840835" streamindex="1"/>       
68                <audio bitrate="128000" channels="1" codec="ac3 (AC[45]3 / 0x332D4341)" ffmpegindex="2" id="69" language="eng" samplerate="48000" start_time="35.842951" streamindex="2"/>       
69        </streams>   
70</file>
71          The American Woodshop
72Node = chanid, Data = 2443
73Node = type, Data = recording
74Node = filename, Data = /home/video/drive0/video/recordings/2443_20130513143000.mpg
75Node = title, Data = The American Woodshop
76Node = recordingdate, Data = Mon May 13 2013
77Node = recordingtime, Data = 10:30 AM
78Node = subtitle, Data = Veneer Inlays
79Node = description, Data = Decorative wood inlays; shop lighting solutions.
80Node = rating, Data = 0.0
81Node = coverfile, Data =
82Node = cutlist, Data =
83Node = starttime, Data = 2013-05-13T10:30:00-04:00
84Node = hascutlist, Data = no
85Video resolution is 704 by 480
86Pre-processing recording 3: '/home/video/drive0/video/recordings/2443_20130517143000.mpg'
87[mpegts @ 0x6e73c0] PES packet size mismatch
88[mpegts @ 0x6e73c0] PES packet size mismatch
89[mpegts @ 0x6e73c0] PES packet size mismatch
90[mpegts @ 0x6e73c0] PES packet size mismatch
91Input #0, mpegts, from '/home/video/drive0/video/recordings/2443_20130517143000.mpg':
92  Duration: 00:29:59.38, start: 59668.358433, bitrate: 3220 kb/s
93    Stream #0:0[0x41]: Video: mpeg2video (Main), yuv420p, 704x480 [SAR 10:11 DAR 4:3], 15000 kb/s, 29.97 fps, 29.97 tbr, 90k tbn, 59.94 tbc
94    Stream #0:1[0x44](eng): Audio: ac3 (AC[45]3 / 0x332D4341), 48000 Hz, stereo, s16, 192 kb/s
95    Stream #0:2[0x45](eng): Audio: ac3 (AC[45]3 / 0x332D4341), 48000 Hz, mono, s16, 128 kb/s
96/var/lib/mytharchive/temp/work/3/streaminfo.xml:-
97<?xml version="1.0" ?><!DOCTYPE FILEINFO><file cutduration="1799" duration="1799" filename="/home/video/drive0/video/recordings/2443_20130517143000.mpg" type="mpegts">   
98        <streams count="3">       
99                <video aspectratio="1.33333" bitrate="15000000" codec="mpeg2video (Main)" ffmpegindex="0" fps="29.97" height="480" id="65" start_time="5370.205202" streamindex="0" width="704"/>       
100                <audio bitrate="192000" channels="2" codec="ac3 (AC[45]3 / 0x332D4341)" ffmpegindex="1" id="68" language="eng" samplerate="48000" start_time="5370.152259" streamindex="1"/>       
101                <audio bitrate="128000" channels="1" codec="ac3 (AC[45]3 / 0x332D4341)" ffmpegindex="2" id="69" language="eng" samplerate="48000" start_time="5370.154375" streamindex="2"/>       
102        </streams>   
103</file>
104          The American Woodshop
105Node = chanid, Data = 2443
106Node = type, Data = recording
107Node = filename, Data = /home/video/drive0/video/recordings/2443_20130517143000.mpg
108Node = title, Data = The American Woodshop
109Node = recordingdate, Data = Fri May 17 2013
110Node = recordingtime, Data = 10:30 AM
111Node = subtitle, Data = Stair Case Upgrades
112Node = description, Data = Balustrades and newel posts.
113Node = rating, Data = 0.0
114Node = coverfile, Data =
115Node = cutlist, Data =
116Node = starttime, Data = 2013-05-17T10:30:00-04:00
117Node = hascutlist, Data = no
118Video resolution is 704 by 480
119Pre-processing recording 4: '/home/video/drive0/video/recordings/2443_20130524143000.mpg'
120Input #0, mpegts, from '/home/video/drive0/video/recordings/2443_20130524143000.mpg':
121  Duration: 00:30:00.14, start: 91806.692300, bitrate: 3220 kb/s
122    Stream #0:0[0x41]: Video: mpeg2video (Main), yuv420p, 704x480 [SAR 10:11 DAR 4:3], 15000 kb/s, 29.97 fps, 29.97 tbr, 90k tbn, 59.94 tbc
123    Stream #0:1[0x44](eng): Audio: ac3 (AC[45]3 / 0x332D4341), 48000 Hz, stereo, s16, 192 kb/s
124    Stream #0:2[0x45](eng): Audio: ac3 (AC[45]3 / 0x332D4341), 48000 Hz, mono, s16, 128 kb/s
125/var/lib/mytharchive/temp/work/4/streaminfo.xml:-
126<?xml version="1.0" ?><!DOCTYPE FILEINFO><file cutduration="1800" duration="1800" filename="/home/video/drive0/video/recordings/2443_20130524143000.mpg" type="mpegts">   
127        <streams count="3">       
128                <video aspectratio="1.33333" bitrate="15000000" codec="mpeg2video (Main)" ffmpegindex="0" fps="29.97" height="480" id="65" start_time="8262.660335" streamindex="0" width="704"/>       
129                <audio bitrate="192000" channels="2" codec="ac3 (AC[45]3 / 0x332D4341)" ffmpegindex="1" id="68" language="eng" samplerate="48000" start_time="8262.602307" streamindex="1"/>       
130                <audio bitrate="128000" channels="1" codec="ac3 (AC[45]3 / 0x332D4341)" ffmpegindex="2" id="69" language="eng" samplerate="48000" start_time="8262.604423" streamindex="2"/>       
131        </streams>   
132</file>
133          The American Woodshop
134Node = chanid, Data = 2443
135Node = type, Data = recording
136Node = filename, Data = /home/video/drive0/video/recordings/2443_20130524143000.mpg
137Node = title, Data = The American Woodshop
138Node = recordingdate, Data = Fri May 24 2013
139Node = recordingtime, Data = 10:30 AM
140Node = subtitle, Data = Thinking Toys 2
141Node = description, Data = Puzzle joinery in furniture.
142Node = rating, Data = 0.0
143Node = coverfile, Data =
144Node = cutlist, Data =
145Node = starttime, Data = 2013-05-24T10:30:00-04:00
146Node = hascutlist, Data = no
147Video resolution is 704 by 480
148*************************************************************
149Processing recording 1: '/home/video/drive0/video/recordings/2443_20130426143000.mpg'
150*************************************************************
151File type is 'mpegts'
152Video codec is 'mpeg2video (Main)'
153Running mythtranscode --mpeg2 to fix any errors
1542013-05-25 16:58:29.910664 C  mythtranscode version: fixes/0.26 [v0.26.0-165-g7150d64] www.mythtv.org
1552013-05-25 16:58:29.910681 C  Qt version: compile: 4.8.1, runtime: 4.8.1
1562013-05-25 16:58:29.910686 N  Enabled verbose msgs:  general
1572013-05-25 16:58:29.910698 N  Setting Log Level to LOG_INFO
1582013-05-25 16:58:29.911297 I  Added logging to the console
1592013-05-25 16:58:29.911763 I  Setup Interrupt handler
1602013-05-25 16:58:29.911771 I  Setup Terminated handler
1612013-05-25 16:58:29.911777 I  Setup Segmentation fault handler
1622013-05-25 16:58:29.911783 I  Setup Aborted handler
1632013-05-25 16:58:29.911789 I  Setup Bus error handler
1642013-05-25 16:58:29.911795 I  Setup Floating point exception handler
1652013-05-25 16:58:29.911801 I  Setup Illegal instruction handler
1662013-05-25 16:58:29.911811 I  Setup Real-time signal 0 handler
1672013-05-25 16:58:29.911958 N  Using runtime prefix = /usr
1682013-05-25 16:58:29.911981 N  Using configuration directory = /home/mark/.mythtv
1692013-05-25 16:58:29.912113 I  Assumed character encoding: en_US.UTF-8
1702013-05-25 16:58:29.912517 N  Empty LocalHostName.
1712013-05-25 16:58:29.912523 I  Using localhost value of htpc
1722013-05-25 16:58:29.925793 N  Setting QT default locale to en_US
1732013-05-25 16:58:29.925834 I  Current locale en_US
1742013-05-25 16:58:29.925863 N  Reading locale defaults from /usr/share/mythtv//locales/en_us.xml
1752013-05-25 16:58:29.929790 I  Loading en_us translation for module mythfrontend
1762013-05-25 16:58:29.948166 E  Couldn't find recording for chanid 2443 @ 2013-04-26T10:30:00Z
177Failed while running mythtranscode to cut commercials and/or clean up an mpeg2 file.
178Result: 146, Command was mythtranscode --mpeg2 --chanid 2443 --starttime 2013-04-26T10:30:00-04:00 --outfile "/var/lib/mytharchive/temp/work/1/newfile.mpg"
179Failed to run mythtranscode to fix any errors
180File will be re-encoded using profile SP
181[mpegts @ 0x808660] PES packet size mismatch
182[mpegts @ 0x808660] PES packet size mismatch
183Input #0, mpegts, from '/home/video/drive0/video/recordings/2443_20130426143000.mpg':
184  Duration: 00:30:00.35, start: 58696.434522, bitrate: 3220 kb/s
185    Stream #0:0[0x41]: Video: mpeg2video (Main), yuv420p, 704x480 [SAR 10:11 DAR 4:3], 15000 kb/s, 29.97 fps, 29.97 tbr, 90k tbn, 59.94 tbc
186    Stream #0:1[0x44](eng): Audio: ac3 (AC[45]3 / 0x332D4341), 48000 Hz, stereo, s16, 192 kb/s
187    Stream #0:2[0x45](eng): Audio: ac3 (AC[45]3 / 0x332D4341), 48000 Hz, mono, s16, 128 kb/s
188/var/lib/mytharchive/temp/work/1/streaminfo.xml:-
189<?xml version="1.0" ?><!DOCTYPE FILEINFO><file cutduration="1800" duration="1800" filename="/home/video/drive0/video/recordings/2443_20130426143000.mpg" type="mpegts">   
190        <streams count="3">       
191                <video aspectratio="1.33333" bitrate="15000000" codec="mpeg2video (Main)" ffmpegindex="0" fps="29.97" height="480" id="65" start_time="5282.729349" streamindex="0" width="704"/>       
192                <audio bitrate="192000" channels="2" codec="ac3 (AC[45]3 / 0x332D4341)" ffmpegindex="1" id="68" language="eng" samplerate="48000" start_time="5282.679107" streamindex="1"/>       
193                <audio bitrate="128000" channels="1" codec="ac3 (AC[45]3 / 0x332D4341)" ffmpegindex="2" id="69" language="eng" samplerate="48000" start_time="5282.681223" streamindex="2"/>       
194        </streams>   
195</file>
196Preferred audio languages eng and eng
197Video id: 0x41, Audio1: [1] 0x44 (AC3 (AC[45]3 / 0X332D4341), eng), Audio2: [-1] - 0x-1 (N/A, N/A)
198Aspect ratio is 4:3
199Re-encoding audio and video
200Using encoder profiles from /home/mark/.mythtv/MythArchive/ffmpeg_dvd_ntsc.xml
201Encoding profile (SP) found
202mythffmpeg -threads 4 -v 1 -i "/home/video/drive0/video/recordings/2443_20130426143000.mpg" -r ntsc -target ntsc-dvd -b 4771k -s 720x480 -acodec ac3 -ab 192k -ac 2 -copyts -aspect 4:3 "/var/lib/mytharchive/temp/work/1/newfile2.mpg" -map 0:0 -map 0:1
203Input #0, mpeg, from '/var/lib/mytharchive/temp/work/1/newfile2.mpg':
204  Duration: 00:30:00.30, start: 0.994667, bitrate: 5010 kb/s
205    Stream #0:0[0x1e0]: Video: mpeg2video (Main), yuv420p, 720x480 [SAR 8:9 DAR 4:3], 9000 kb/s, 29.97 fps, 29.97 tbr, 90k tbn, 59.94 tbc
206    Stream #0:1[0x80]: Audio: ac3, 48000 Hz, stereo, s16, 192 kb/s
207/var/lib/mytharchive/temp/work/1/streaminfo.xml:-
208<?xml version="1.0" ?><!DOCTYPE FILEINFO><file cutduration="1800" duration="1800" filename="/var/lib/mytharchive/temp/work/1/newfile2.mpg" type="mpeg">   
209        <streams count="2">       
210                <video aspectratio="1.33333" bitrate="9000000" codec="mpeg2video (Main)" ffmpegindex="0" fps="29.97" height="480" id="480" start_time="0.90000" streamindex="0" width="720"/>       
211                <audio bitrate="192000" channels="2" codec="ac3" ffmpegindex="1" id="128" language="N/A" samplerate="48000" start_time="0.89520" streamindex="1"/>       
212        </streams>   
213</file>
214Preferred audio languages eng and eng
215Video id: 0x1e0, Audio1: [1] 0x80 (AC3, N/A), Audio2: [-1] - 0x-1 (N/A, N/A)
216Splitting MPEG stream into audio and video parts
217Running: mythreplex --demux --fix_sync -o "/var/lib/mytharchive/temp/work/1/stream" -v 224 -c 128 "/var/lib/mytharchive/temp/work/1/newfile2.mpg"
218Reading from /var/lib/mytharchive/temp/work/1/newfile2.mpg
219Input file length: 1075.25 MB
220Checking for TS:
221failed
222Checking for AVI:
223failed
224Checking for PS:
225confirmed(maybe)
226Video: aspect ratio: 4:3
227starting with video PTS:
228 0:00:01.0000
229starting audio PTS:
230 0:00:00.9946
231video PTS inconsistent:
232 0:00:01.0667
233 0:00:01.0667
234 0:00:01.1334
235 0:00:00.1334
236 diff:
237 0:00:00.0667
238video DTS inconsistent:
239 0:00:01.0333
240 0:00:01.0333
241 0:00:01.1001
242 0:00:00.1001
243diff:
244 0:00:00.0667
245video PTS inconsistent:
246 0:00:01.0667
247 0:00:01.0667
248 0:00:01.1668
249 0:00:00.1668
250 diff:
251 0:00:00.1001
252video DTS inconsistent:
253 0:00:01.0333
254 0:00:01.0333
255 0:00:01.1334
256 0:00:00.1334
257diff:
258 0:00:00.1001
259video PTS inconsistent:
260 0:00:01.0667
261 0:00:01.0667
262 0:00:01.2002
263 0:00:00.2002
264 diff:
265 0:00:00.1334
266video DTS inconsistent:
267 0:00:01.0333
268 0:00:01.0333
269 0:00:01.1668
270 0:00:00.1668
271diff:
272 0:00:00.1334
273video PTS inconsistent:
274 0:00:01.2335
275 0:00:01.2335
276 0:00:01.3003
277 0:00:00.3003
278 diff:
279 0:00:00.0667
280video DTS inconsistent:
281 0:00:01.2002
282 0:00:01.2002
283 0:00:01.2669
284 0:00:00.2669
285diff:
286 0:00:00.0667
287video PTS inconsistent:
288 0:00:01.2335
289 0:00:01.2335
290 0:00:01.3336
291 0:00:00.3336
292 diff:
293 0:00:00.1001
294video DTS inconsistent:
295 0:00:01.2002
296 0:00:01.2002
297 0:00:01.3003
298 0:00:00.3003
299diff:
300 0:00:00.1001
301video PTS inconsistent:
302 0:00:01.2335
303 0:00:01.2335
304 0:00:01.3670
305 0:00:00.3670
306 diff:
307 0:00:00.1334
308video DTS inconsistent:
309 0:00:01.2002
310 0:00:01.2002
311 0:00:01.3336
312 0:00:00.3336
313diff:
314 0:00:00.1334
315video PTS inconsistent:
316 0:00:01.2335
317 0:00:01.2335
318 0:00:01.4004
319 0:00:00.4004
320 diff:
321 0:00:00.1668
322video DTS inconsistent:
323 0:00:01.2002
324 0:00:01.2002
325 0:00:01.3670
326 0:00:00.3670
327diff:
328 0:00:00.1668
329video PTS inconsistent:
330 0:00:01.2335
331 0:00:01.2335
332 0:00:01.4337
333 0:00:00.4337
334 diff:
335 0:00:00.2002
336video DTS inconsistent:
337 0:00:01.2002
338 0:00:01.2002
339 0:00:01.4004
340 0:00:00.4004
341diff:
342 0:00:00.2002
343video PTS inconsistent:
344 0:00:01.4671
345 0:00:01.4671
346 0:00:01.5338
347 0:00:00.5338
348 diff:
349 0:00:00.0667
350video DTS inconsistent:
351 0:00:01.4337
352 0:00:01.4337
353 0:00:01.5005
354 0:00:00.5005
355diff:
356 0:00:00.0667
357video PTS inconsistent:
358 0:00:01.4671
359 0:00:01.4671
360 0:00:01.5672
361 0:00:00.5672
362 diff:
363 0:00:00.1001
364video DTS inconsistent:
365 0:00:01.4337
366 0:00:01.4337
367 0:00:01.5338
368 0:00:00.5338
369diff:
370 0:00:00.1001
371Video output File is: /var/lib/mytharchive/temp/work/1/stream.mv2
372AC30 output File is: /var/lib/mytharchive/temp/work/1/stream0.ac3
373STARTING DEMUX
374video PTS inconsistent:
375 0:00:56.4554
376 0:00:56.4554
377 0:00:56.5221
378 0:00:55.5221
379 diff:
380 0:00:00.0667
381video DTS inconsistent:
382 0:00:56.4220
383 0:00:56.4220
384 0:00:56.4887
385 0:00:55.4887
386diff:
387 0:00:00.0667
388video PTS inconsistent:
389 0:00:56.5555
390 0:00:56.5555
391 0:00:56.6222
392 0:00:55.6222
393 diff:
394 0:00:00.0667
395video DTS inconsistent:
396 0:00:56.5221
397 0:00:56.5221
398 0:00:56.5888
399 0:00:55.5888
400diff:
401 0:00:00.0667
402video PTS inconsistent:
403 0:00:56.6556
404 0:00:56.6556
405 0:00:56.7223
406 0:00:55.7223
407 diff:
408 0:00:00.0667
409video DTS inconsistent:
410 0:00:56.6222
411 0:00:56.6222
412 0:00:56.6889
413 0:00:55.6889
414diff:
415 0:00:00.0667
416video PTS inconsistent:
417 0:00:56.6556
418 0:00:56.6556
419 0:00:56.7557
420 0:00:55.7557
421 diff:
422 0:00:00.1001
423video DTS inconsistent:
424 0:00:56.6222
425 0:00:56.6222
426 0:00:56.7223
427 0:00:55.7223
428diff:
429 0:00:00.1001
430video PTS inconsistent:
431 0:25:58.6561
432 0:25:58.6561
433 0:25:58.7228
434 0:25:57.7228
435 diff:
436 0:00:00.0667
437video DTS inconsistent:
438 0:25:58.6227
439 0:25:58.6227
440 0:25:58.6894
441 0:25:57.6894
442diff:
443 0:00:00.0667
444video PTS inconsistent:
445 0:25:58.7562
446 0:25:58.7562
447 0:25:58.8229
448 0:25:57.8229
449 diff:
450 0:00:00.0667
451video DTS inconsistent:
452 0:25:58.7228
453 0:25:58.7228
454 0:25:58.7895
455 0:25:57.7895
456diff:
457 0:00:00.0667
458video PTS inconsistent:
459 0:25:58.7562
460 0:25:58.7562
461 0:25:58.8563
462 0:25:57.8563
463 diff:
464 0:00:00.1001
465video DTS inconsistent:
466 0:25:58.7228
467 0:25:58.7228
468 0:25:58.8229
469 0:25:57.8229
470diff:
471 0:00:00.1001
472video PTS inconsistent:
473 0:25:58.9564
474 0:25:58.9564
475 0:25:59.0231
476 0:25:58.0231
477 diff:
478 0:00:00.0667
479video DTS inconsistent:
480 0:25:58.9230
481 0:25:58.9230
482 0:25:58.9897
483 0:25:57.9897
484diff:
485 0:00:00.0667
486video PTS inconsistent:
487 0:26:56.2803
488 0:26:56.2803
489 0:26:56.3470
490 0:26:55.3470
491 diff:
492 0:00:00.0667
493video DTS inconsistent:
494 0:26:56.2469
495 0:26:56.2469
496 0:26:56.3137
497 0:26:55.3137
498diff:
499 0:00:00.0667
500video PTS inconsistent:
501 0:26:58.4825
502 0:26:58.4825
503 0:26:58.5492
504 0:26:57.5492
505 diff:
506 0:00:00.0667
507video DTS inconsistent:
508 0:26:58.4491
509 0:26:58.4491
510 0:26:58.5159
511 0:26:57.5159
512diff:
513 0:00:00.0667
514video PTS inconsistent:
515 0:26:58.5492
516 0:26:58.5492
517 0:26:58.6160
518 0:26:57.6160
519 diff:
520 0:00:00.0667
521video DTS inconsistent:
522 0:26:58.5159
523 0:26:58.5159
524 0:26:58.5826
525 0:26:57.5826
526diff:
527 0:00:00.0667
528video PTS inconsistent:
529 0:26:59.4835
530 0:26:59.4835
531 0:26:59.5502
532 0:26:58.5502
533 diff:
534 0:00:00.0667
535video DTS inconsistent:
536 0:26:59.4501
537 0:26:59.4501
538 0:26:59.5169
539 0:26:58.5169
540diff:
541 0:00:00.0667
542video PTS inconsistent:
543 0:27:00.5846
544 0:27:00.5846
545 0:27:00.6513
546 0:26:59.6513
547 diff:
548 0:00:00.0667
549video DTS inconsistent:
550 0:27:00.5512
551 0:27:00.5512
552 0:27:00.6180
553 0:26:59.6180
554diff:
555 0:00:00.0667
556video PTS inconsistent:
557 0:27:00.9516
558 0:27:00.9516
559 0:27:01.0184
560 0:27:00.0184
561 diff:
562 0:00:00.0667
563video DTS inconsistent:
564 0:27:00.9183
565 0:27:00.9183
566 0:27:00.9850
567 0:26:59.9850
568diff:
569 0:00:00.0667
570video PTS inconsistent:
571 0:27:01.2853
572 0:27:01.2853
573 0:27:01.3520
574 0:27:00.3520
575 diff:
576 0:00:00.0667
577video DTS inconsistent:
578 0:27:01.2519
579 0:27:01.2519
580 0:27:01.3187
581 0:27:00.3187
582diff:
583 0:00:00.0667
584video PTS inconsistent:
585 0:27:02.0194
586 0:27:02.0194
587 0:27:02.0861
588 0:27:01.0861
589 diff:
590 0:00:00.0667
591video DTS inconsistent:
592 0:27:01.9860
593 0:27:01.9860
594 0:27:02.0527
595 0:27:01.0527
596diff:
597 0:00:00.0667
598video PTS inconsistent:
599 0:28:06.3169
600 0:28:06.3169
601 0:28:06.3837
602 0:28:05.3837
603 diff:
604 0:00:00.0667
605video DTS inconsistent:
606 0:28:06.2836
607 0:28:06.2836
608 0:28:06.3503
609 0:28:05.3503
610diff:
611 0:00:00.0667
612video PTS inconsistent:
613 0:28:06.3169
614 0:28:06.3169
615 0:28:06.4170
616 0:28:05.4170
617 diff:
618 0:00:00.1001
619video DTS inconsistent:
620 0:28:06.2836
621 0:28:06.2836
622 0:28:06.3837
623 0:28:05.3837
624diff:
625 0:00:00.1001
626video PTS inconsistent:
627 0:28:36.3469
628 0:28:36.3469
629 0:28:36.4137
630 0:28:35.4137
631 diff:
632 0:00:00.0667
633video DTS inconsistent:
634 0:28:36.3136
635 0:28:36.3136
636 0:28:36.3803
637 0:28:35.3803
638diff:
639 0:00:00.0667
640video PTS inconsistent:
641 0:28:36.3469
642 0:28:36.3469
643 0:28:36.4470
644 0:28:35.4470
645 diff:
646 0:00:00.1001
647video DTS inconsistent:
648 0:28:36.3136
649 0:28:36.3136
650 0:28:36.4137
651 0:28:35.4137
652diff:
653 0:00:00.1001
654video PTS inconsistent:
655 0:29:26.2968
656 0:29:26.2968
657 0:29:26.3636
658 0:29:25.3636
659 diff:
660 0:00:00.0667
661video DTS inconsistent:
662 0:29:26.2635
663 0:29:26.2635
664 0:29:26.3302
665 0:29:25.3302
666diff:
667 0:00:00.0667
668video PTS inconsistent:
669 0:29:26.2968
670 0:29:26.2968
671 0:29:26.3969
672 0:29:25.3969
673 diff:
674 0:00:00.1001
675video DTS inconsistent:
676 0:29:26.2635
677 0:29:26.2635
678 0:29:26.3636
679 0:29:25.3636
680diff:
681 0:00:00.1001
682video PTS inconsistent:
683 0:29:43.2471
684 0:29:43.2471
685 0:29:43.3138
686 0:29:42.3138
687 diff:
688 0:00:00.0667
689video DTS inconsistent:
690 0:29:43.2137
691 0:29:43.2137
692 0:29:43.2805
693 0:29:42.2805
694diff:
695 0:00:00.0667
696video PTS inconsistent:
697 0:29:44.7486
698 0:29:44.7486
699 0:29:44.8153
700 0:29:43.8153
701 diff:
702 0:00:00.0667
703video DTS inconsistent:
704 0:29:44.7152
705 0:29:44.7152
706 0:29:44.7820
707 0:29:43.7820
708diff:
709 0:00:00.0667
710video PTS inconsistent:
711 0:29:44.9488
712 0:29:44.9488
713 0:29:45.0155
714 0:29:44.0155
715 diff:
716 0:00:00.0667
717video DTS inconsistent:
718 0:29:44.9154
719 0:29:44.9154
720 0:29:44.9822
721 0:29:43.9822
722diff:
723 0:00:00.0667
724video PTS inconsistent:
725 0:29:45.1490
726 0:29:45.1490
727 0:29:45.2157
728 0:29:44.2157
729 diff:
730 0:00:00.0667
731video DTS inconsistent:
732 0:29:45.1156
733 0:29:45.1156
734 0:29:45.1824
735 0:29:44.1824
736diff:
737 0:00:00.0667
738video PTS inconsistent:
739 0:29:45.2825
740 0:29:45.2825
741 0:29:45.3492
742 0:29:44.3492
743 diff:
744 0:00:00.0667
745video DTS inconsistent:
746 0:29:45.2491
747 0:29:45.2491
748 0:29:45.3158
749 0:29:44.3158
750diff:
751 0:00:00.0667
752video PTS inconsistent:
753 0:29:46.9842
754 0:29:46.9842
755 0:29:47.0509
756 0:29:46.0509
757 diff:
758 0:00:00.0667
759video DTS inconsistent:
760 0:29:46.9508
761 0:29:46.9508
762 0:29:47.0175
763 0:29:46.0175
764diff:
765 0:00:00.0667
766video PTS inconsistent:
767 0:29:47.1510
768 0:29:47.1510
769 0:29:47.2177
770 0:29:46.2177
771 diff:
772 0:00:00.0667
773video DTS inconsistent:
774 0:29:47.1176
775 0:29:47.1176
776 0:29:47.1844
777 0:29:46.1844
778diff:
779 0:00:00.0667
780video PTS inconsistent:
781 0:29:48.7192
782 0:29:48.7192
783 0:29:48.7860
784 0:29:47.7860
785 diff:
786 0:00:00.0667
787video DTS inconsistent:
788 0:29:48.6859
789 0:29:48.6859
790 0:29:48.7526
791 0:29:47.7526
792diff:
793 0:00:00.0667
794video PTS inconsistent:
795 0:29:49.2197
796 0:29:49.2197
797 0:29:49.2865
798 0:29:48.2865
799 diff:
800 0:00:00.0667
801video DTS inconsistent:
802 0:29:49.1864
803 0:29:49.1864
804 0:29:49.2531
805 0:29:48.2531
806diff:
807 0:00:00.0667
808video PTS inconsistent:
809 0:30:01.2985
810 0:30:01.2985
811 0:30:01.3652
812 0:30:00.3652
813 diff:
814 0:00:00.0667
815video DTS inconsistent:
816 0:30:01.2651
817 0:30:01.2651
818 0:30:01.3318
819 0:30:00.3318
820diff:
821 0:00:00.0667
822video PTS inconsistent:
823 0:30:01.2985
824 0:30:01.2985
825 0:30:01.3986
826 0:30:00.3986
827 diff:
828 0:00:00.1001
829video DTS inconsistent:
830 0:30:01.2651
831 0:30:01.2651
832 0:30:01.3652
833 0:30:00.3652
834diff:
835 0:00:00.1001
836Audio is already in ac3 format
837*************************************************************
838Finished processing '/home/video/drive0/video/recordings/2443_20130426143000.mpg'
839*************************************************************
840*************************************************************
841Processing recording 2: '/home/video/drive0/video/recordings/2443_20130513143000.mpg'
842*************************************************************
843File type is 'mpegts'
844Video codec is 'mpeg2video (Main)'
845Running mythtranscode --mpeg2 to fix any errors
8462013-05-25 17:04:45.838839 C  mythtranscode version: fixes/0.26 [v0.26.0-165-g7150d64] www.mythtv.org
8472013-05-25 17:04:45.838881 C  Qt version: compile: 4.8.1, runtime: 4.8.1
8482013-05-25 17:04:45.838891 N  Enabled verbose msgs:  general
8492013-05-25 17:04:45.838920 N  Setting Log Level to LOG_INFO
8502013-05-25 17:04:45.839572 I  Added logging to the console
8512013-05-25 17:04:45.861280 I  Setup Interrupt handler
8522013-05-25 17:04:45.861303 I  Setup Terminated handler
8532013-05-25 17:04:45.861320 I  Setup Segmentation fault handler
8542013-05-25 17:04:45.861337 I  Setup Aborted handler
8552013-05-25 17:04:45.861353 I  Setup Bus error handler
8562013-05-25 17:04:45.861371 I  Setup Floating point exception handler
8572013-05-25 17:04:45.861387 I  Setup Illegal instruction handler
8582013-05-25 17:04:45.861409 I  Setup Real-time signal 0 handler
8592013-05-25 17:04:45.861481 N  Using runtime prefix = /usr
8602013-05-25 17:04:45.861505 N  Using configuration directory = /home/mark/.mythtv
8612013-05-25 17:04:45.861623 I  Assumed character encoding: en_US.UTF-8
8622013-05-25 17:04:45.862489 N  Empty LocalHostName.
8632013-05-25 17:04:45.862504 I  Using localhost value of htpc
8642013-05-25 17:04:45.911277 N  Setting QT default locale to en_US
8652013-05-25 17:04:45.911378 I  Current locale en_US
8662013-05-25 17:04:45.911453 N  Reading locale defaults from /usr/share/mythtv//locales/en_us.xml
8672013-05-25 17:04:45.918411 I  Loading en_us translation for module mythfrontend
8682013-05-25 17:04:45.932309 N  Transcoding from /home/video/drive0/video/recordings/2443_20130513103000.mpg to /var/lib/mytharchive/temp/work/2/newfile.mpg
8692013-05-25 17:04:45.935683 I  Opening /home/video/drive0/video/recordings/2443_20130513103000.mpg
8702013-05-25 17:04:46.076231 I  PES packet size mismatch
8712013-05-25 17:04:46.076253 I  PES packet size mismatch
8722013-05-25 17:04:46.076315 I  Input #0, mpegts, from '/home/video/drive0/video/recordings/2443_20130513103000.mpg':
8732013-05-25 17:04:46.076347 I    Duration: 00:29:58.60, start: 81443.069189, bitrate: 3215 kb/s
8742013-05-25 17:04:46.076453 I      Stream #0:0[0x41]: Video: mpeg2video (Main), yuv420p, 704x480 [SAR 10:11 DAR 4:3], 15000 kb/s, 29.97 fps, 29.97 tbr, 90k tbn, 59.94 tbc
8752013-05-25 17:04:46.076546 I      Stream #0:1[0x44](eng): Audio: ac3 (AC[45]3 / 0x332D4341), 48000 Hz, stereo, s16, 192 kb/s
8762013-05-25 17:04:46.076579 I      Stream #0:2[0x45](eng): Audio: ac3 (AC[45]3 / 0x332D4341), 48000 Hz, mono, s16, 128 kb/s
8772013-05-25 17:04:46.076931 I  Added logging to mythlogserver at TCP:35327
8782013-05-25 17:04:46.080167 I  #0 PTS:22:37:23.676 Delta: 0.0ms queue: 14
8792013-05-25 17:04:46.080249 I  #1 PTS:22:37:23.645 Delta: 31.7556ms queue: 2
8802013-05-25 17:04:46.080283 I  #2 PTS:22:37:23.668 Delta: 8.24444ms queue: 2
8812013-05-25 17:04:46.139021 I  Mux rate: 15.57 Mbit/s
8822013-05-25 17:05:04.637832 I  PES packet size mismatch
8832013-05-25 17:05:04.637872 I  PES packet size mismatch
8842013-05-25 17:05:04.660024 I  Inserting 1 I-Frames after #8
8852013-05-25 17:05:04.679471 I  Generating Keyframe Index
8862013-05-25 17:05:04.679478 I  Opening /var/lib/mytharchive/temp/work/2/newfile.mpg
8872013-05-25 17:05:04.693519 I  Input #0, mpeg, from '/var/lib/mytharchive/temp/work/2/newfile.mpg':
8882013-05-25 17:05:04.693530 I    Duration: 00:29:57.99, start: 0.360000, bitrate: 3169 kb/s
8892013-05-25 17:05:04.693554 I      Stream #0:0[0x1e0]: Video: mpeg2video (Main), yuv420p, 704x480 [SAR 10:11 DAR 4:3], 15000 kb/s, 29.97 fps, 29.97 tbr, 90k tbn, 59.94 tbc
8902013-05-25 17:05:04.693563 I      Stream #0:1[0x80]: Audio: ac3, 48000 Hz, stereo, s16, 192 kb/s
8912013-05-25 17:05:04.693571 I      Stream #0:2[0x81]: Audio: ac3, 48000 Hz, mono, s16, 128 kb/s
8922013-05-25 17:05:06.132053 N  Transcode Completed
8932013-05-25 17:05:06.133417 N  Transcoding /home/video/drive0/video/recordings/2443_20130513103000.mpg done
894File will be re-encoded using profile SP
895Input #0, mpeg, from '/var/lib/mytharchive/temp/work/2/newfile.mpg':
896  Duration: 00:29:57.99, start: 0.360000, bitrate: 3169 kb/s
897    Stream #0:0[0x1e0]: Video: mpeg2video (Main), yuv420p, 704x480 [SAR 10:11 DAR 4:3], 15000 kb/s, 29.97 fps, 29.97 tbr, 90k tbn, 59.94 tbc
898    Stream #0:1[0x80]: Audio: ac3, 48000 Hz, stereo, s16, 192 kb/s
899    Stream #0:2[0x81]: Audio: ac3, 48000 Hz, mono, s16, 128 kb/s
900/var/lib/mytharchive/temp/work/2/streaminfo.xml:-
901<?xml version="1.0" ?><!DOCTYPE FILEINFO><file cutduration="1797" duration="1797" filename="/var/lib/mytharchive/temp/work/2/newfile.mpg" type="mpeg">   
902        <streams count="3">       
903                <video aspectratio="1.33333" bitrate="15000000" codec="mpeg2video (Main)" ffmpegindex="0" fps="29.97" height="480" id="480" start_time="0.35258" streamindex="0" width="704"/>       
904                <audio bitrate="192000" channels="2" codec="ac3" ffmpegindex="1" id="128" language="N/A" samplerate="48000" start_time="0.32400" streamindex="1"/>       
905                <audio bitrate="128000" channels="1" codec="ac3" ffmpegindex="2" id="129" language="N/A" samplerate="48000" start_time="0.34516" streamindex="2"/>       
906        </streams>   
907</file>
908Preferred audio languages eng and eng
909Video id: 0x1e0, Audio1: [1] 0x80 (AC3, N/A), Audio2: [-1] - 0x-1 (N/A, N/A)
910Aspect ratio is 4:3
911Re-encoding audio and video
912Using encoder profiles from /home/mark/.mythtv/MythArchive/ffmpeg_dvd_ntsc.xml
913Encoding profile (SP) found
914mythffmpeg -threads 4 -v 1 -i "/var/lib/mytharchive/temp/work/2/newfile.mpg" -r ntsc -target ntsc-dvd -b 4771k -s 720x480 -acodec copy -ab 192k -copyts -aspect 4:3 "/var/lib/mytharchive/temp/work/2/newfile2.mpg" -map 0:0 -map 0:1
915Input #0, mpeg, from '/var/lib/mytharchive/temp/work/2/newfile2.mpg':
916  Duration: 00:29:57.99, start: 1.000000, bitrate: 4280 kb/s
917    Stream #0:0[0x1e0]: Video: mpeg2video (Main), yuv420p, 720x480 [SAR 8:9 DAR 4:3], 9000 kb/s, 29.97 fps, 29.97 tbr, 90k tbn, 59.94 tbc
918    Stream #0:1[0x80]: Audio: ac3, 48000 Hz, stereo, s16, 192 kb/s
919/var/lib/mytharchive/temp/work/2/streaminfo.xml:-
920<?xml version="1.0" ?><!DOCTYPE FILEINFO><file cutduration="1798" duration="1798" filename="/var/lib/mytharchive/temp/work/2/newfile2.mpg" type="mpeg">   
921        <streams count="2">       
922                <video aspectratio="1.33333" bitrate="9000000" codec="mpeg2video (Main)" ffmpegindex="0" fps="29.97" height="480" id="480" start_time="0.90000" streamindex="0" width="720"/>       
923                <audio bitrate="192000" channels="2" codec="ac3" ffmpegindex="1" id="128" language="N/A" samplerate="48000" start_time="0.90000" streamindex="1"/>       
924        </streams>   
925</file>
926Preferred audio languages eng and eng
927Video id: 0x1e0, Audio1: [1] 0x80 (AC3, N/A), Audio2: [-1] - 0x-1 (N/A, N/A)
928Splitting MPEG stream into audio and video parts
929Running: mythreplex --demux --fix_sync -o "/var/lib/mytharchive/temp/work/2/stream" -v 224 -c 128 "/var/lib/mytharchive/temp/work/2/newfile2.mpg"
930Reading from /var/lib/mytharchive/temp/work/2/newfile2.mpg
931Input file length: 917.44 MB
932Checking for TS:
933failed
934Checking for AVI:
935failed
936Checking for PS:
937confirmed(maybe)
938Video: aspect ratio: 4:3
939starting with video PTS:
940 0:00:01.0000
941starting audio PTS:
942 0:00:01.0000
943Video output File is: /var/lib/mytharchive/temp/work/2/stream.mv2
944AC30 output File is: /var/lib/mytharchive/temp/work/2/stream0.ac3
945STARTING DEMUX
946video PTS inconsistent:
947 0:29:24.1614
948 0:29:24.1614
949 0:29:24.2281
950 0:29:23.2281
951 diff:
952 0:00:00.0667
953video DTS inconsistent:
954 0:29:24.1280
955 0:29:24.1280
956 0:29:24.1947
957 0:29:23.1947
958diff:
959 0:00:00.0667
960video PTS inconsistent:
961 0:29:24.3616
962 0:29:24.3616
963 0:29:24.4283
964 0:29:23.4283
965 diff:
966 0:00:00.0667
967video DTS inconsistent:
968 0:29:24.3282
969 0:29:24.3282
970 0:29:24.3949
971 0:29:23.3949
972diff:
973 0:00:00.0667
974video PTS inconsistent:
975 0:29:24.3616
976 0:29:24.3616
977 0:29:24.4617
978 0:29:23.4617
979 diff:
980 0:00:00.1001
981video DTS inconsistent:
982 0:29:24.3282
983 0:29:24.3282
984 0:29:24.4283
985 0:29:23.4283
986diff:
987 0:00:00.1001
988video PTS inconsistent:
989 0:29:24.3616
990 0:29:24.3616
991 0:29:24.4950
992 0:29:23.4950
993 diff:
994 0:00:00.1334
995video DTS inconsistent:
996 0:29:24.3282
997 0:29:24.3282
998 0:29:24.4617
999 0:29:23.4617
1000diff:
1001 0:00:00.1334
1002video PTS inconsistent:
1003 0:29:24.5284
1004 0:29:24.5284
1005 0:29:24.5951
1006 0:29:23.5951
1007 diff:
1008 0:00:00.0667
1009video DTS inconsistent:
1010 0:29:24.4950
1011 0:29:24.4950
1012 0:29:24.5618
1013 0:29:23.5618
1014diff:
1015 0:00:00.0667
1016video PTS inconsistent:
1017 0:29:24.5284
1018 0:29:24.5284
1019 0:29:24.6285
1020 0:29:23.6285
1021 diff:
1022 0:00:00.1001
1023video DTS inconsistent:
1024 0:29:24.4950
1025 0:29:24.4950
1026 0:29:24.5951
1027 0:29:23.5951
1028diff:
1029 0:00:00.1001
1030video PTS inconsistent:
1031 0:29:24.7286
1032 0:29:24.7286
1033 0:29:24.7953
1034 0:29:23.7953
1035 diff:
1036 0:00:00.0667
1037video DTS inconsistent:
1038 0:29:24.6952
1039 0:29:24.6952
1040 0:29:24.7620
1041 0:29:23.7620
1042diff:
1043 0:00:00.0667
1044video PTS inconsistent:
1045 0:29:24.8287
1046 0:29:24.8287
1047 0:29:24.8954
1048 0:29:23.8954
1049 diff:
1050 0:00:00.0667
1051video DTS inconsistent:
1052 0:29:24.7953
1053 0:29:24.7953
1054 0:29:24.8621
1055 0:29:23.8621
1056diff:
1057 0:00:00.0667
1058video PTS inconsistent:
1059 0:29:24.8287
1060 0:29:24.8287
1061 0:29:24.9288
1062 0:29:23.9288
1063 diff:
1064 0:00:00.1001
1065video DTS inconsistent:
1066 0:29:24.7953
1067 0:29:24.7953
1068 0:29:24.8954
1069 0:29:23.8954
1070diff:
1071 0:00:00.1001
1072video PTS inconsistent:
1073 0:29:24.8287
1074 0:29:24.8287
1075 0:29:24.9622
1076 0:29:23.9622
1077 diff:
1078 0:00:00.1334
1079video DTS inconsistent:
1080 0:29:24.7953
1081 0:29:24.7953
1082 0:29:24.9288
1083 0:29:23.9288
1084diff:
1085 0:00:00.1334
1086video PTS inconsistent:
1087 0:29:24.9955
1088 0:29:24.9955
1089 0:29:25.0623
1090 0:29:24.0623
1091 diff:
1092 0:00:00.0667
1093video DTS inconsistent:
1094 0:29:24.9622
1095 0:29:24.9622
1096 0:29:25.0289
1097 0:29:24.0289
1098diff:
1099 0:00:00.0667
1100Audio is already in ac3 format
1101*************************************************************
1102Finished processing '/home/video/drive0/video/recordings/2443_20130513143000.mpg'
1103*************************************************************
1104*************************************************************
1105Processing recording 3: '/home/video/drive0/video/recordings/2443_20130517143000.mpg'
1106*************************************************************
1107File type is 'mpegts'
1108Video codec is 'mpeg2video (Main)'
1109Running mythtranscode --mpeg2 to fix any errors
11102013-05-25 17:10:55.988670 C  mythtranscode version: fixes/0.26 [v0.26.0-165-g7150d64] www.mythtv.org
11112013-05-25 17:10:55.988718 C  Qt version: compile: 4.8.1, runtime: 4.8.1
11122013-05-25 17:10:55.988739 N  Enabled verbose msgs:  general
11132013-05-25 17:10:55.988770 N  Setting Log Level to LOG_INFO
11142013-05-25 17:10:55.989329 I  Added logging to the console
11152013-05-25 17:10:56.004545 I  Setup Interrupt handler
11162013-05-25 17:10:56.004569 I  Setup Terminated handler
11172013-05-25 17:10:56.004587 I  Setup Segmentation fault handler
11182013-05-25 17:10:56.004604 I  Setup Aborted handler
11192013-05-25 17:10:56.004620 I  Setup Bus error handler
11202013-05-25 17:10:56.004642 I  Setup Floating point exception handler
11212013-05-25 17:10:56.004666 I  Setup Illegal instruction handler
11222013-05-25 17:10:56.004686 I  Setup Real-time signal 0 handler
11232013-05-25 17:10:56.004757 N  Using runtime prefix = /usr
11242013-05-25 17:10:56.004782 N  Using configuration directory = /home/mark/.mythtv
11252013-05-25 17:10:56.004900 I  Assumed character encoding: en_US.UTF-8
11262013-05-25 17:10:56.005580 N  Empty LocalHostName.
11272013-05-25 17:10:56.005592 I  Using localhost value of htpc
11282013-05-25 17:10:56.077732 N  Setting QT default locale to en_US
11292013-05-25 17:10:56.077834 I  Current locale en_US
11302013-05-25 17:10:56.077911 N  Reading locale defaults from /usr/share/mythtv//locales/en_us.xml
11312013-05-25 17:10:56.085294 I  Loading en_us translation for module mythfrontend
11322013-05-25 17:10:56.133793 N  Transcoding from /home/video/drive0/video/recordings/2443_20130517103000.mpg to /var/lib/mytharchive/temp/work/3/newfile.mpg
11332013-05-25 17:10:56.157416 I  Opening /home/video/drive0/video/recordings/2443_20130517103000.mpg
11342013-05-25 17:10:56.220050 I  Added logging to mythlogserver at TCP:35327
11352013-05-25 17:10:56.568990 I  PES packet size mismatch
11362013-05-25 17:10:56.569008 I  PES packet size mismatch
11372013-05-25 17:10:56.569068 I  Input #0, mpegts, from '/home/video/drive0/video/recordings/2443_20130517103000.mpg':
11382013-05-25 17:10:56.569095 I    Duration: 00:29:59.65, start: 45267.901944, bitrate: 3218 kb/s
11392013-05-25 17:10:56.569190 I      Stream #0:0[0x41]: Video: mpeg2video (Main), yuv420p, 704x480 [SAR 10:11 DAR 4:3], 15000 kb/s, 29.97 fps, 29.97 tbr, 90k tbn, 59.94 tbc
11402013-05-25 17:10:56.569231 I      Stream #0:1[0x44](eng): Audio: ac3 (AC[45]3 / 0x332D4341), 48000 Hz, stereo, s16, 192 kb/s
11412013-05-25 17:10:56.569256 I      Stream #0:2[0x45](eng): Audio: ac3 (AC[45]3 / 0x332D4341), 48000 Hz, mono, s16, 128 kb/s
11422013-05-25 17:10:56.571953 I  #0 PTS:12:34:28.560 Delta: 0.0ms queue: 20
11432013-05-25 17:10:56.572011 I  #1 PTS:12:34:28.550 Delta: 10.2556ms queue: 4
11442013-05-25 17:10:56.572041 I  #2 PTS:12:34:28.541 Delta: 18.7444ms queue: 2
11452013-05-25 17:10:56.613264 I  Mux rate: 15.57 Mbit/s
11462013-05-25 17:11:26.251946 I  PES packet size mismatch
11472013-05-25 17:11:26.251976 I  PES packet size mismatch
11482013-05-25 17:11:26.320757 I  Inserting 2 I-Frames after #8
11492013-05-25 17:11:26.365029 I  Generating Keyframe Index
11502013-05-25 17:11:26.365046 I  Opening /var/lib/mytharchive/temp/work/3/newfile.mpg
11512013-05-25 17:11:26.378095 I  Input #0, mpeg, from '/var/lib/mytharchive/temp/work/3/newfile.mpg':
11522013-05-25 17:11:26.378104 I    Duration: 26:30:43.57, start: 0.360000, bitrate: 59 kb/s
11532013-05-25 17:11:26.378128 I      Stream #0:0[0x1e0]: Video: mpeg2video (Main), yuv420p, 704x480 [SAR 10:11 DAR 4:3], 15000 kb/s, 29.97 fps, 29.97 tbr, 90k tbn, 59.94 tbc
11542013-05-25 17:11:26.378137 I      Stream #0:1[0x81]: Audio: ac3, 48000 Hz, mono, s16, 128 kb/s
11552013-05-25 17:11:26.378145 I      Stream #0:2[0x80]: Audio: ac3, 48000 Hz, stereo, s16, 192 kb/s
11562013-05-25 17:11:27.845615 I  Invalid timestamps stream=0, pts=19203, dts=161940832, size=2015
11572013-05-25 17:11:27.845645 N  Transcode Completed
11582013-05-25 17:11:27.858063 N  Transcoding /home/video/drive0/video/recordings/2443_20130517103000.mpg done
1159File will be re-encoded using profile SP
1160Input #0, mpeg, from '/var/lib/mytharchive/temp/work/3/newfile.mpg':
1161  Duration: 26:30:43.57, start: 0.360000, bitrate: 59 kb/s
1162    Stream #0:0[0x1e0]: Video: mpeg2video (Main), yuv420p, 704x480 [SAR 10:11 DAR 4:3], 15000 kb/s, 29.97 fps, 29.97 tbr, 90k tbn, 59.94 tbc
1163    Stream #0:1[0x81]: Audio: ac3, 48000 Hz, mono, s16, 128 kb/s
1164    Stream #0:2[0x80]: Audio: ac3, 48000 Hz, stereo, s16, 192 kb/s
1165/var/lib/mytharchive/temp/work/3/streaminfo.xml:-
1166<?xml version="1.0" ?><!DOCTYPE FILEINFO><file cutduration="95443" duration="95443" filename="/var/lib/mytharchive/temp/work/3/newfile.mpg" type="mpeg">   
1167        <streams count="3">       
1168                <video aspectratio="1.33333" bitrate="15000000" codec="mpeg2video (Main)" ffmpegindex="0" fps="29.97" height="480" id="480" start_time="0.34087" streamindex="0" width="704"/>       
1169                <audio bitrate="128000" channels="1" codec="ac3" ffmpegindex="1" id="129" language="N/A" samplerate="48000" start_time="0.32400" streamindex="1"/>       
1170                <audio bitrate="192000" channels="2" codec="ac3" ffmpegindex="2" id="128" language="N/A" samplerate="48000" start_time="0.33164" streamindex="2"/>       
1171        </streams>   
1172</file>
1173Preferred audio languages eng and eng
1174Video id: 0x1e0, Audio1: [2] 0x80 (AC3, N/A), Audio2: [-1] - 0x-1 (N/A, N/A)
1175Aspect ratio is 4:3
1176Re-encoding audio and video
1177Using encoder profiles from /home/mark/.mythtv/MythArchive/ffmpeg_dvd_ntsc.xml
1178Encoding profile (SP) found
1179mythffmpeg -threads 4 -v 1 -i "/var/lib/mytharchive/temp/work/3/newfile.mpg" -r ntsc -target ntsc-dvd -b 4771k -s 720x480 -acodec copy -ab 192k -copyts -aspect 4:3 "/var/lib/mytharchive/temp/work/3/newfile2.mpg" -map 0:0 -map 0:2