Ticket #11728: mythburn.log

File mythburn.log, 4.0 KB (added by Scott Lair <scott@…>, 7 years ago)
Line 
1Using simple_fix_rtl
2mythburn.py (0.1.20120304-1) starting up...
3script path:/usr/share/mythtv/mytharchive/scripts
4myth share path:/usr/share/mythtv
5passed job file: /srv/mytharchive/config/mydata.xml
6passed progress log file: /srv/mytharchive/logs/progress.log
7mythburn.py (0.1.20120304-1) starting up...
8Found 8 CPUs
9Obtaining MythTV settings from MySQL database for hostname debian-scottmyth
10temppath: /srv/mytharchive/work
11logpath:  /srv/mytharchive/logs
12Setting process priority to 17
13Processing Mythburn job number 1.
14Options - mediatype = 0, doburn = 0, createiso = 1, erasedvdrw = 0
15          savefilename = ''
16Looking for: /usr/share/mythtv/mytharchive/themes/MythCenter/theme.xml
17Loading font 0, /usr/share/mythtv/fonts/FreeSans.ttf size 18
18Loading font 1, /usr/share/mythtv/fonts/FreeSans.ttf size 15
19Loading font 2, /usr/share/mythtv/fonts/FreeSans.ttf size 13
20wantIntro: 1, wantMainMenu: 1, wantChapterMenu: 1, wantDetailsPage: 0
21Final DVD Video format will be ntsc
22There are 1 file(s) to process
23Pre-processing recording 1: '/srv2/mythtv/16002_20130803175000.mpg'
24[mpegts @ 0x7eff04019e60] PES packet size mismatch
25[mpegts @ 0x7eff04019e60] PES packet size mismatch
26[mpegts @ 0x7eff04019e60] PES packet size mismatch
27[mpegts @ 0x7eff04019e60] PES packet size mismatch
28Input #0, mpegts, from '/srv2/mythtv/16002_20130803175000.mpg':
29  Duration: 01:19:58.55, start: 27427.190033, bitrate: 4126 kb/s
30    Stream #0:0[0x800](eng): Audio: ac3, 48000 Hz, stereo, s16, 192 kb/s
31    Stream #0:1[0x801]: Video: mpeg2video (Main), yuv420p, 528x480 [SAR 40:33 DAR 4:3], 15000 kb/s, 29.97 fps, 29.97 tbr, 90k tbn, 59.94 tbc
32    Stream #0:2[0x802](spa): Audio: ac3, 48000 Hz, stereo, s16, 96 kb/s
33/srv/mytharchive/work/1/streaminfo.xml:-
34<?xml version="1.0" ?><!DOCTYPE FILEINFO><file cutduration="3255" duration="4798" filename="/srv2/mythtv/16002_20130803175000.mpg" type="mpegts">   
35        <streams count="3">       
36                <audio bitrate="192000" channels="2" codec="ac3" ffmpegindex="0" id="2048" language="eng" samplerate="48000" start_time="2468.447103" streamindex="0"/>       
37                <video aspectratio="1.33333" bitrate="15000000" codec="mpeg2video (Main)" ffmpegindex="1" fps="29.97" height="480" id="2049" start_time="2468.491361" streamindex="1" width="528"/>       
38                <audio bitrate="96000" channels="2" codec="ac3" ffmpegindex="2" id="2050" language="spa" samplerate="48000" start_time="2468.448922" streamindex="2"/>       
39        </streams>   
40</file>
41Node = chanid, Data = 16002
42Node = type, Data = recording
43Node = filename, Data = /srv2/mythtv/16002_20130803175000.mpg
44Node = title, Data = Bones test
45Node = recordingdate, Data = 2013-08-03T13:50:00-04:00
46Node = recordingtime, Data = 2013-08-03T13:50:00-04:00
47Node = subtitle, Data = Fire in the Ice
48Node = description, Data = A man and his son discover a frozen body in a pond; Booth gets advice from one of his hockey idols.
49Node = rating, Data =
50Node = coverfile, Data =
51Node = cutlist, Data =
52Node = hascutlist, Data = yes
53Video resolution is 528 by 480
54*************************************************************
55Processing recording 1: '/srv2/mythtv/16002_20130803175000.mpg'
56*************************************************************
57File type is 'mpegts'
58Video codec is 'mpeg2video (Main)'
59File has a cut list - running mythtranscode to remove unwanted segments
60------------------------------------------------------------
61Traceback (most recent call last):
62  File "/usr/share/mythtv/mytharchive/scripts/mythburn.py", line 5179, in main
63    processJob(job)
64  File "/usr/share/mythtv/mytharchive/scripts/mythburn.py", line 4881, in processJob
65    processFile(node,folder,filecount)
66  File "/usr/share/mythtv/mytharchive/scripts/mythburn.py", line 4383, in processFile
67    doProcessFile(file, folder, count)
68  File "/usr/share/mythtv/mytharchive/scripts/mythburn.py", line 4436, in doProcessFile
69    starttime = getText(infoDOM.getElementsByTagName("starttime")[0])
70IndexError: list index out of range
71------------------------------------------------------------