Ticket #12210: debug.txt

File debug.txt, 3.7 KB (added by tobias.powalowski@…, 6 years ago)
Line 
12014-07-16 11:30:34.280186 C  mythtranscode version: fixes/0.27 [v0.27.3-82-g7e83d93-dirty] www.mythtv.org
22014-07-16 11:30:34.280196 C  Qt version: compile: 4.8.6, runtime: 4.8.6
32014-07-16 11:30:34.280199 N  Enabled verbose msgs:  general
42014-07-16 11:30:34.280204 N  Setting Log Level to LOG_INFO
52014-07-16 11:30:34.290587 I  Added logging to the console
62014-07-16 11:30:34.290842 I  Setup Unterbrechung handler
72014-07-16 11:30:34.290847 I  Setup Beendet handler
82014-07-16 11:30:34.290852 I  Setup Speicherzugriffsfehler handler
92014-07-16 11:30:34.290855 I  Setup Abgebrochen handler
102014-07-16 11:30:34.290859 I  Setup Bus-Zugriffsfehler handler
112014-07-16 11:30:34.290863 I  Setup Gleitkomma-Ausnahme handler
122014-07-16 11:30:34.290869 I  Setup UngÌltiger Maschinenbefehl handler
132014-07-16 11:30:34.290875 I  Setup Real-Time Signal 0 handler
142014-07-16 11:30:34.290899 N  Using runtime prefix = /usr
152014-07-16 11:30:34.290904 N  Using configuration directory = /home/tobias/.mythtv
162014-07-16 11:30:34.290939 I  Assumed character encoding: de_DE.utf8
172014-07-16 11:30:34.290941 W  This application expects to be running a locale that specifies a UTF-8 codeset, and many features may behave improperly with your current language settings. Please set the LC_ALL or LC_CTYPE, and LANG variable(s) in the environment in which this program is executed to include a UTF-8 codeset (such as 'en_US.UTF-8').
182014-07-16 11:30:34.291125 N  Empty LocalHostName.
192014-07-16 11:30:34.291129 I  Using localhost value of T-POWA-LX
202014-07-16 11:30:34.296671 N  Setting QT default locale to de_DE
212014-07-16 11:30:34.296710 I  Current locale de_DE
222014-07-16 11:30:34.296727 N  Reading locale defaults from /usr/share/mythtv//locales/de_de.xml
232014-07-16 11:30:34.298086 I  Loading de translation for module mythfrontend
242014-07-16 11:30:34.298401 N  Transcoding from /media-server/mpeg/Miss Undercover 2 - 2014-07-15, 9-45 PM - Actionkomödie[copy].mpg to foo.mpg
252014-07-16 11:30:34.300038 I  Opening /media-server/mpeg/Miss Undercover 2 - 2014-07-15, 9-45 PM - Actionkomödie[copy].mpg
262014-07-16 11:30:34.313826 I  max_analyze_duration 5000000 reached at 5024000 microseconds
272014-07-16 11:30:34.313941 I  start time is not set in estimate_timings_from_pts
282014-07-16 11:30:34.315197 I  PES packet size mismatch
292014-07-16 11:30:34.316769 I  PES packet size mismatch
302014-07-16 11:30:34.320710 I  Input #0, mpegts, from '/media-server/mpeg/Miss Undercover 2 - 2014-07-15, 9-45 PM - Actionkomödie[copy].mpg':
312014-07-16 11:30:34.320714 I    Duration: N/A, bitrate: N/A
322014-07-16 11:30:34.320724 I      Stream #0:0[0x20](deu): Subtitle: dvb_teletext
332014-07-16 11:30:34.320731 I      Stream #0:1[0x9ff]: Video: mpeg2video, 90k tbn
342014-07-16 11:30:34.320744 I      Stream #0:2[0xa00](deu): Audio: mp3, 0 channels
352014-07-16 11:30:34.320747 I      Stream #0:3[0xa01](eng): Audio: mp3, 0 channels
362014-07-16 11:30:34.320750 I      Stream #0:4[0xa03](deu): Audio: ac3, 0 channels
372014-07-16 11:30:34.320756 E  Skipping unsupported codec 3 on stream 0
382014-07-16 11:30:34.320758 E  Skipping invalid audio stream: 2
392014-07-16 11:30:34.320759 E  Skipping invalid audio stream: 3
402014-07-16 11:30:34.320760 E  Skipping invalid audio stream: 4
412014-07-16 11:30:34.321017 I  #1 PTS:21:30:16.184 Delta: 0.0ms queue: 1
422014-07-16 11:30:34.327583 I  Mux rate: 15,25 Mbit/s
432014-07-16 11:30:34.336455 I  PES packet size mismatch
442014-07-16 11:30:34.338279 I  PES packet size mismatch
452014-07-16 11:30:34.367438 I  Inserting 1 I-Frames after #2
462014-07-16 11:30:34.367489 E  ringbuffer overflow -1<36064 0
472014-07-16 11:30:34.367493 E  Ring buffer overflow 0
482014-07-16 11:30:34.367896 E  Transcoding /media-server/mpeg/Miss Undercover 2 - 2014-07-15, 9-45 PM - Actionkomödie[copy].mpg failed
492014-07-16 11:30:34.391379 I  New Client:  (#1)