Ticket #12698: mythtranscode.log

File mythtranscode.log, 29.6 KB (added by anonymous, 5 years ago)
Line 
12016-03-26 18:39:53.654198 C  mythtranscode version: makepkg [v0.28-pre-3663-g5dda854-dirty] www.mythtv.org
22016-03-26 18:39:53.654232 C  Qt version: compile: 5.5.1, runtime: 5.5.1
32016-03-26 18:39:53.654235 N  Enabled verbose msgs:  general
42016-03-26 18:39:53.654249 N  Setting Log Level to LOG_INFO
52016-03-26 18:39:53.665256 I  Added logging to the console
62016-03-26 18:39:53.665521 I  Setup Interrupt handler
72016-03-26 18:39:53.665527 I  Setup Terminated handler
82016-03-26 18:39:53.665531 I  Setup Segmentation fault handler
92016-03-26 18:39:53.665537 I  Setup Aborted handler
102016-03-26 18:39:53.665541 I  Setup Bus error handler
112016-03-26 18:39:53.665547 I  Setup Floating point exception handler
122016-03-26 18:39:53.665551 I  Setup Illegal instruction handler
132016-03-26 18:39:53.665558 I  Setup Real-time signal 0 handler
142016-03-26 18:39:53.665565 I  Setup Hangup handler
152016-03-26 18:39:53.665651 N  Using runtime prefix = /usr
162016-03-26 18:39:53.665653 N  Using configuration directory = /var/lib/mythtv/.mythtv
172016-03-26 18:39:53.665723 I  Assumed character encoding: en_US.UTF-8
182016-03-26 18:39:53.665983 N  Empty LocalHostName.
192016-03-26 18:39:53.665988 I  Using localhost value of fs
202016-03-26 18:39:53.682032 N  Setting QT default locale to en_US
212016-03-26 18:39:53.682048 I  Current locale en_US
222016-03-26 18:39:53.682112 N  Reading locale defaults from /usr/share/mythtv//locales/en_us.xml
232016-03-26 18:39:53.689264 I  Loading en_us translation for module mythfrontend
242016-03-26 18:39:53.692115 N  Transcoding from /mythtv/5619_20160325050000.ts to /tmp/out.ts
252016-03-26 18:39:53.692123 I  Honoring the cutlist while transcoding
262016-03-26 18:39:53.698665 I  Opening /mythtv/5619_20160325050000.ts
272016-03-26 18:39:53.823191 I  PES packet size mismatch
282016-03-26 18:39:53.823210 I  PES packet size mismatch
292016-03-26 18:39:53.823256 I  Input #0, mpegts, from '/mythtv/5619_20160325050000.ts':
302016-03-26 18:39:53.823269 I    Duration: 00:59:58.93, start: 62856.273433, bitrate: 13630 kb/s
312016-03-26 18:39:53.823370 I      Stream #0:0[0xe8a]: Video: mpeg2video (Main), yuv420p(tv), 1280x720 [SAR 1:1 DAR 16:9], max. 25000 kb/s, 59.94 fps, 59.94 tbr, 90k tbn, 119.88 tbc
322016-03-26 18:39:53.823416 I      Stream #0:1[0xe8b](eng): Audio: ac3, 48000 Hz, 5.1(side), fltp, 384 kb/s
332016-03-26 18:39:53.823440 I      Stream #0:2[0xe8c](spa): Audio: ac3, 48000 Hz, stereo, fltp, 192 kb/s
342016-03-26 18:39:53.832618 I  #0 PTS:17:27:36.810 Delta: 0.0ms queue: 42
352016-03-26 18:39:53.832657 I  #1 PTS:17:27:36.785 Delta: 25.2444ms queue: 2
362016-03-26 18:39:53.832680 I  #2 PTS:17:27:36.785 Delta: 25.2444ms queue: 4
372016-03-26 18:39:53.832714 N  MPEG2fixup::InitReplex(): High Definition input, increasing replex buffers
382016-03-26 18:39:53.905172 I  Mux rate: 25.99 Mbit/s
392016-03-26 18:39:54.644734 I  AVFrame.format is not set
402016-03-26 18:39:54.644740 I  AVFrame.width or height is not set
412016-03-26 18:39:54.646010 I  AVFrame.format is not set
422016-03-26 18:39:54.646014 I  AVFrame.width or height is not set
432016-03-26 18:39:54.652006 I  Inserting 0 I-Frames after #14
442016-03-26 18:39:55.646072 I  AVFrame.format is not set
452016-03-26 18:39:55.646078 I  AVFrame.width or height is not set
462016-03-26 18:39:55.647178 I  AVFrame.format is not set
472016-03-26 18:39:55.647182 I  AVFrame.width or height is not set
482016-03-26 18:39:55.651450 I  Inserting 0 I-Frames after #29
492016-03-26 18:39:56.538178 I  AVFrame.format is not set
502016-03-26 18:39:56.538184 I  AVFrame.width or height is not set
512016-03-26 18:39:56.539549 I  AVFrame.format is not set
522016-03-26 18:39:56.539553 I  AVFrame.width or height is not set
532016-03-26 18:39:56.544519 I  Inserting 0 I-Frames after #5
542016-03-26 18:39:57.557950 I  AVFrame.format is not set
552016-03-26 18:39:57.557956 I  AVFrame.width or height is not set
562016-03-26 18:39:57.559181 I  AVFrame.format is not set
572016-03-26 18:39:57.559184 I  AVFrame.width or height is not set
582016-03-26 18:39:57.564677 I  Inserting 0 I-Frames after #15
592016-03-26 18:39:58.597113 I  AVFrame.format is not set
602016-03-26 18:39:58.597119 I  AVFrame.width or height is not set
612016-03-26 18:39:58.598355 I  AVFrame.format is not set
622016-03-26 18:39:58.598359 I  AVFrame.width or height is not set
632016-03-26 18:39:58.603152 I  Inserting 0 I-Frames after #41
642016-03-26 18:39:59.552737 I  AVFrame.format is not set
652016-03-26 18:39:59.552742 I  AVFrame.width or height is not set
662016-03-26 18:39:59.554062 I  AVFrame.format is not set
672016-03-26 18:39:59.554067 I  AVFrame.width or height is not set
682016-03-26 18:39:59.559952 I  Inserting 0 I-Frames after #20
692016-03-26 18:40:01.111697 I  AVFrame.format is not set
702016-03-26 18:40:01.111704 I  AVFrame.width or height is not set
712016-03-26 18:40:01.113284 I  AVFrame.format is not set
722016-03-26 18:40:01.113289 I  AVFrame.width or height is not set
732016-03-26 18:40:01.118919 I  Inserting 0 I-Frames after #2
742016-03-26 18:40:02.511730 I  AVFrame.format is not set
752016-03-26 18:40:02.511736 I  AVFrame.width or height is not set
762016-03-26 18:40:02.512935 I  AVFrame.format is not set
772016-03-26 18:40:02.512939 I  AVFrame.width or height is not set
782016-03-26 18:40:02.518641 I  Inserting 0 I-Frames after #5
792016-03-26 18:40:03.334853 I  AVFrame.format is not set
802016-03-26 18:40:03.334858 I  AVFrame.width or height is not set
812016-03-26 18:40:03.336091 I  AVFrame.format is not set
822016-03-26 18:40:03.336095 I  AVFrame.width or height is not set
832016-03-26 18:40:03.341338 I  Inserting 0 I-Frames after #17
842016-03-26 18:40:04.374325 I  AVFrame.format is not set
852016-03-26 18:40:04.374331 I  AVFrame.width or height is not set
862016-03-26 18:40:04.375553 I  AVFrame.format is not set
872016-03-26 18:40:04.375557 I  AVFrame.width or height is not set
882016-03-26 18:40:04.380841 I  Inserting 0 I-Frames after #23
892016-03-26 18:40:05.469466 I  AVFrame.format is not set
902016-03-26 18:40:05.469472 I  AVFrame.width or height is not set
912016-03-26 18:40:05.471049 I  AVFrame.format is not set
922016-03-26 18:40:05.471057 I  AVFrame.width or height is not set
932016-03-26 18:40:05.476941 I  Inserting 0 I-Frames after #2
942016-03-26 18:40:07.173641 I  AVFrame.format is not set
952016-03-26 18:40:07.173646 I  AVFrame.width or height is not set
962016-03-26 18:40:07.174876 I  AVFrame.format is not set
972016-03-26 18:40:07.174880 I  AVFrame.width or height is not set
982016-03-26 18:40:07.179552 I  Inserting 0 I-Frames after #41
992016-03-26 18:40:08.093970 I  AVFrame.format is not set
1002016-03-26 18:40:08.093975 I  AVFrame.width or height is not set
1012016-03-26 18:40:08.095231 I  AVFrame.format is not set
1022016-03-26 18:40:08.095234 I  AVFrame.width or height is not set
1032016-03-26 18:40:08.100211 I  Inserting 0 I-Frames after #8
1042016-03-26 18:40:09.269207 I  AVFrame.format is not set
1052016-03-26 18:40:09.269212 I  AVFrame.width or height is not set
1062016-03-26 18:40:09.270332 I  AVFrame.format is not set
1072016-03-26 18:40:09.270336 I  AVFrame.width or height is not set
1082016-03-26 18:40:09.275130 I  Inserting 0 I-Frames after #44
1092016-03-26 18:40:10.118133 I  AVFrame.format is not set
1102016-03-26 18:40:10.118139 I  AVFrame.width or height is not set
1112016-03-26 18:40:10.119339 I  AVFrame.format is not set
1122016-03-26 18:40:10.119343 I  AVFrame.width or height is not set
1132016-03-26 18:40:10.123824 I  Inserting 0 I-Frames after #17
1142016-03-26 18:40:11.313433 I  AVFrame.format is not set
1152016-03-26 18:40:11.313439 I  AVFrame.width or height is not set
1162016-03-26 18:40:11.314058 I  AVFrame.format is not set
1172016-03-26 18:40:11.314062 I  AVFrame.width or height is not set
1182016-03-26 18:40:11.318110 I  Inserting 0 I-Frames after #14
1192016-03-26 18:40:12.811285 I  AVFrame.format is not set
1202016-03-26 18:40:12.811292 I  AVFrame.width or height is not set
1212016-03-26 18:40:12.812240 I  AVFrame.format is not set
1222016-03-26 18:40:12.812245 I  AVFrame.width or height is not set
1232016-03-26 18:40:12.818711 I  Inserting 0 I-Frames after #2
1242016-03-26 18:40:13.809625 I  AVFrame.format is not set
1252016-03-26 18:40:13.809630 I  AVFrame.width or height is not set
1262016-03-26 18:40:13.810677 I  AVFrame.format is not set
1272016-03-26 18:40:13.810681 I  AVFrame.width or height is not set
1282016-03-26 18:40:13.815201 I  Inserting 0 I-Frames after #41
1292016-03-26 18:40:14.757135 I  AVFrame.format is not set
1302016-03-26 18:40:14.757140 I  AVFrame.width or height is not set
1312016-03-26 18:40:14.757756 I  AVFrame.format is not set
1322016-03-26 18:40:14.757760 I  AVFrame.width or height is not set
1332016-03-26 18:40:14.762698 I  Inserting 0 I-Frames after #35
1342016-03-26 18:40:15.762067 I  AVFrame.format is not set
1352016-03-26 18:40:15.762073 I  AVFrame.width or height is not set
1362016-03-26 18:40:15.762787 I  AVFrame.format is not set
1372016-03-26 18:40:15.762791 I  AVFrame.width or height is not set
1382016-03-26 18:40:15.767642 I  Inserting 0 I-Frames after #8
1392016-03-26 18:40:16.798368 I  AVFrame.format is not set
1402016-03-26 18:40:16.798374 I  AVFrame.width or height is not set
1412016-03-26 18:40:16.799343 I  AVFrame.format is not set
1422016-03-26 18:40:16.799357 I  AVFrame.width or height is not set
1432016-03-26 18:40:16.803952 I  Inserting 0 I-Frames after #32
1442016-03-26 18:40:17.763480 I  AVFrame.format is not set
1452016-03-26 18:40:17.763486 I  AVFrame.width or height is not set
1462016-03-26 18:40:17.764108 I  AVFrame.format is not set
1472016-03-26 18:40:17.764112 I  AVFrame.width or height is not set
1482016-03-26 18:40:17.768571 I  Inserting 0 I-Frames after #29
1492016-03-26 18:40:18.667675 I  AVFrame.format is not set
1502016-03-26 18:40:18.667681 I  AVFrame.width or height is not set
1512016-03-26 18:40:18.668307 I  AVFrame.format is not set
1522016-03-26 18:40:18.668311 I  AVFrame.width or height is not set
1532016-03-26 18:40:18.672562 I  Inserting 0 I-Frames after #31
1542016-03-26 18:40:19.628672 I  AVFrame.format is not set
1552016-03-26 18:40:19.628681 I  AVFrame.width or height is not set
1562016-03-26 18:40:19.629295 I  AVFrame.format is not set
1572016-03-26 18:40:19.629299 I  AVFrame.width or height is not set
1582016-03-26 18:40:19.633268 I  Inserting 0 I-Frames after #17
1592016-03-26 18:40:20.622197 I  AVFrame.format is not set
1602016-03-26 18:40:20.622202 I  AVFrame.width or height is not set
1612016-03-26 18:40:20.622793 I  AVFrame.format is not set
1622016-03-26 18:40:20.622797 I  AVFrame.width or height is not set
1632016-03-26 18:40:20.625919 I  Inserting 0 I-Frames after #35
1642016-03-26 18:40:21.569529 I  AVFrame.format is not set
1652016-03-26 18:40:21.569535 I  AVFrame.width or height is not set
1662016-03-26 18:40:21.570178 I  AVFrame.format is not set
1672016-03-26 18:40:21.570181 I  AVFrame.width or height is not set
1682016-03-26 18:40:21.575387 I  Inserting 0 I-Frames after #14
1692016-03-26 18:40:22.528710 I  AVFrame.format is not set
1702016-03-26 18:40:22.528715 I  AVFrame.width or height is not set
1712016-03-26 18:40:22.529898 I  AVFrame.format is not set
1722016-03-26 18:40:22.529902 I  AVFrame.width or height is not set
1732016-03-26 18:40:22.535148 I  Inserting 0 I-Frames after #11
1742016-03-26 18:40:24.616512 I  AVFrame.format is not set
1752016-03-26 18:40:24.616517 I  AVFrame.width or height is not set
1762016-03-26 18:40:24.617597 I  AVFrame.format is not set
1772016-03-26 18:40:24.617601 I  AVFrame.width or height is not set
1782016-03-26 18:40:24.622284 I  Inserting 0 I-Frames after #8
1792016-03-26 18:40:25.616793 I  AVFrame.format is not set
1802016-03-26 18:40:25.616799 I  AVFrame.width or height is not set
1812016-03-26 18:40:25.617863 I  AVFrame.format is not set
1822016-03-26 18:40:25.617867 I  AVFrame.width or height is not set
1832016-03-26 18:40:25.622773 I  Inserting 0 I-Frames after #35
1842016-03-26 18:40:26.517548 I  AVFrame.format is not set
1852016-03-26 18:40:26.517553 I  AVFrame.width or height is not set
1862016-03-26 18:40:26.518292 I  AVFrame.format is not set
1872016-03-26 18:40:26.518296 I  AVFrame.width or height is not set
1882016-03-26 18:40:26.523175 I  Inserting 0 I-Frames after #27
1892016-03-26 18:40:27.323779 I  AVFrame.format is not set
1902016-03-26 18:40:27.323785 I  AVFrame.width or height is not set
1912016-03-26 18:40:27.324914 I  AVFrame.format is not set
1922016-03-26 18:40:27.324918 I  AVFrame.width or height is not set
1932016-03-26 18:40:27.329652 I  Inserting 0 I-Frames after #35
1942016-03-26 18:40:28.658062 I  AVFrame.format is not set
1952016-03-26 18:40:28.658067 I  AVFrame.width or height is not set
1962016-03-26 18:40:28.659079 I  AVFrame.format is not set
1972016-03-26 18:40:28.659083 I  AVFrame.width or height is not set
1982016-03-26 18:40:28.663708 I  Inserting 0 I-Frames after #2
1992016-03-26 18:40:29.519334 I  AVFrame.format is not set
2002016-03-26 18:40:29.519340 I  AVFrame.width or height is not set
2012016-03-26 18:40:29.519987 I  AVFrame.format is not set
2022016-03-26 18:40:29.519990 I  AVFrame.width or height is not set
2032016-03-26 18:40:29.527114 I  Inserting 0 I-Frames after #29
2042016-03-26 18:40:30.744100 I  AVFrame.format is not set
2052016-03-26 18:40:30.744105 I  AVFrame.width or height is not set
2062016-03-26 18:40:30.744861 I  AVFrame.format is not set
2072016-03-26 18:40:30.744865 I  AVFrame.width or height is not set
2082016-03-26 18:40:30.749282 I  Inserting 0 I-Frames after #5
2092016-03-26 18:40:31.869122 I  AVFrame.format is not set
2102016-03-26 18:40:31.869128 I  AVFrame.width or height is not set
2112016-03-26 18:40:31.870292 I  AVFrame.format is not set
2122016-03-26 18:40:31.870296 I  AVFrame.width or height is not set
2132016-03-26 18:40:31.876666 I  Inserting 0 I-Frames after #8
2142016-03-26 18:40:32.871283 I  AVFrame.format is not set
2152016-03-26 18:40:32.871288 I  AVFrame.width or height is not set
2162016-03-26 18:40:32.872464 I  AVFrame.format is not set
2172016-03-26 18:40:32.872468 I  AVFrame.width or height is not set
2182016-03-26 18:40:32.878314 I  Inserting 0 I-Frames after #44
2192016-03-26 18:40:33.909848 I  AVFrame.format is not set
2202016-03-26 18:40:33.909854 I  AVFrame.width or height is not set
2212016-03-26 18:40:33.911050 I  AVFrame.format is not set
2222016-03-26 18:40:33.911054 I  AVFrame.width or height is not set
2232016-03-26 18:40:33.918779 I  Inserting 0 I-Frames after #50
2242016-03-26 18:40:35.133966 I  AVFrame.format is not set
2252016-03-26 18:40:35.133971 I  AVFrame.width or height is not set
2262016-03-26 18:40:35.135226 I  AVFrame.format is not set
2272016-03-26 18:40:35.135230 I  AVFrame.width or height is not set
2282016-03-26 18:40:35.141134 I  Inserting 0 I-Frames after #38
2292016-03-26 18:40:36.357910 I  AVFrame.format is not set
2302016-03-26 18:40:36.357916 I  AVFrame.width or height is not set
2312016-03-26 18:40:36.359065 I  AVFrame.format is not set
2322016-03-26 18:40:36.359069 I  AVFrame.width or height is not set
2332016-03-26 18:40:36.364152 I  Inserting 0 I-Frames after #17
2342016-03-26 18:40:37.475744 I  AVFrame.format is not set
2352016-03-26 18:40:37.475750 I  AVFrame.width or height is not set
2362016-03-26 18:40:37.476864 I  AVFrame.format is not set
2372016-03-26 18:40:37.476868 I  AVFrame.width or height is not set
2382016-03-26 18:40:37.481716 I  Inserting 0 I-Frames after #17
2392016-03-26 18:40:38.542124 I  AVFrame.format is not set
2402016-03-26 18:40:38.542129 I  AVFrame.width or height is not set
2412016-03-26 18:40:38.543388 I  AVFrame.format is not set
2422016-03-26 18:40:38.543396 I  AVFrame.width or height is not set
2432016-03-26 18:40:38.548584 I  Inserting 0 I-Frames after #32
2442016-03-26 18:40:39.617366 I  AVFrame.format is not set
2452016-03-26 18:40:39.617374 I  AVFrame.width or height is not set
2462016-03-26 18:40:39.618817 I  AVFrame.format is not set
2472016-03-26 18:40:39.618821 I  AVFrame.width or height is not set
2482016-03-26 18:40:39.624936 I  Inserting 0 I-Frames after #14
2492016-03-26 18:40:41.299998 I  AVFrame.format is not set
2502016-03-26 18:40:41.300003 I  AVFrame.width or height is not set
2512016-03-26 18:40:41.301062 I  AVFrame.format is not set
2522016-03-26 18:40:41.301066 I  AVFrame.width or height is not set
2532016-03-26 18:40:41.305463 I  Inserting 0 I-Frames after #38
2542016-03-26 18:40:43.361004 I  AVFrame.format is not set
2552016-03-26 18:40:43.361010 I  AVFrame.width or height is not set
2562016-03-26 18:40:43.361738 I  AVFrame.format is not set
2572016-03-26 18:40:43.361742 I  AVFrame.width or height is not set
2582016-03-26 18:40:43.365682 I  Inserting 0 I-Frames after #8
2592016-03-26 18:40:44.363218 I  AVFrame.format is not set
2602016-03-26 18:40:44.363223 I  AVFrame.width or height is not set
2612016-03-26 18:40:44.364144 I  AVFrame.format is not set
2622016-03-26 18:40:44.364148 I  AVFrame.width or height is not set
2632016-03-26 18:40:44.368006 I  Inserting 0 I-Frames after #29
2642016-03-26 18:40:45.295244 I  AVFrame.format is not set
2652016-03-26 18:40:45.295250 I  AVFrame.width or height is not set
2662016-03-26 18:40:45.296158 I  AVFrame.format is not set
2672016-03-26 18:40:45.296162 I  AVFrame.width or height is not set
2682016-03-26 18:40:45.300780 I  Inserting 0 I-Frames after #29
2692016-03-26 18:40:46.230649 I  AVFrame.format is not set
2702016-03-26 18:40:46.230654 I  AVFrame.width or height is not set
2712016-03-26 18:40:46.231857 I  AVFrame.format is not set
2722016-03-26 18:40:46.231861 I  AVFrame.width or height is not set
2732016-03-26 18:40:46.237971 I  Inserting 0 I-Frames after #32
2742016-03-26 18:40:47.253669 I  AVFrame.format is not set
2752016-03-26 18:40:47.253674 I  AVFrame.width or height is not set
2762016-03-26 18:40:47.254627 I  AVFrame.format is not set
2772016-03-26 18:40:47.254630 I  AVFrame.width or height is not set
2782016-03-26 18:40:47.258463 I  Inserting 0 I-Frames after #14
2792016-03-26 18:40:48.375537 I  AVFrame.format is not set
2802016-03-26 18:40:48.375542 I  AVFrame.width or height is not set
2812016-03-26 18:40:48.376150 I  AVFrame.format is not set
2822016-03-26 18:40:48.376154 I  AVFrame.width or height is not set
2832016-03-26 18:40:48.380562 I  Inserting 0 I-Frames after #41
2842016-03-26 18:40:49.326992 I  AVFrame.format is not set
2852016-03-26 18:40:49.326997 I  AVFrame.width or height is not set
2862016-03-26 18:40:49.327814 I  AVFrame.format is not set
2872016-03-26 18:40:49.327818 I  AVFrame.width or height is not set
2882016-03-26 18:40:49.333373 I  Inserting 0 I-Frames after #14
2892016-03-26 18:40:50.407137 I  AVFrame.format is not set
2902016-03-26 18:40:50.407142 I  AVFrame.width or height is not set
2912016-03-26 18:40:50.408039 I  AVFrame.format is not set
2922016-03-26 18:40:50.408042 I  AVFrame.width or height is not set
2932016-03-26 18:40:50.412392 I  Inserting 0 I-Frames after #44
2942016-03-26 18:40:51.230672 I  AVFrame.format is not set
2952016-03-26 18:40:51.230678 I  AVFrame.width or height is not set
2962016-03-26 18:40:51.231618 I  AVFrame.format is not set
2972016-03-26 18:40:51.231622 I  AVFrame.width or height is not set
2982016-03-26 18:40:51.236071 I  Inserting 0 I-Frames after #2
2992016-03-26 18:40:52.855826 I  AVFrame.format is not set
3002016-03-26 18:40:52.855833 I  AVFrame.width or height is not set
3012016-03-26 18:40:52.856932 I  AVFrame.format is not set
3022016-03-26 18:40:52.856936 I  AVFrame.width or height is not set
3032016-03-26 18:40:52.862124 I  Inserting 0 I-Frames after #38
3042016-03-26 18:40:54.335948 I  AVFrame.format is not set
3052016-03-26 18:40:54.335953 I  AVFrame.width or height is not set
3062016-03-26 18:40:54.336994 I  AVFrame.format is not set
3072016-03-26 18:40:54.336998 I  AVFrame.width or height is not set
3082016-03-26 18:40:54.341156 I  Inserting 0 I-Frames after #44
3092016-03-26 18:40:55.223301 I  AVFrame.format is not set
3102016-03-26 18:40:55.223306 I  AVFrame.width or height is not set
3112016-03-26 18:40:55.223918 I  AVFrame.format is not set
3122016-03-26 18:40:55.223921 I  AVFrame.width or height is not set
3132016-03-26 18:40:55.228604 I  Inserting 0 I-Frames after #23
3142016-03-26 18:40:56.160678 I  AVFrame.format is not set
3152016-03-26 18:40:56.160683 I  AVFrame.width or height is not set
3162016-03-26 18:40:56.161584 I  AVFrame.format is not set
3172016-03-26 18:40:56.161588 I  AVFrame.width or height is not set
3182016-03-26 18:40:56.167948 I  Inserting 0 I-Frames after #20
3192016-03-26 18:40:57.148583 I  AVFrame.format is not set
3202016-03-26 18:40:57.148588 I  AVFrame.width or height is not set
3212016-03-26 18:40:57.149659 I  AVFrame.format is not set
3222016-03-26 18:40:57.149662 I  AVFrame.width or height is not set
3232016-03-26 18:40:57.154501 I  Inserting 0 I-Frames after #5
3242016-03-26 18:40:58.228065 I  AVFrame.format is not set
3252016-03-26 18:40:58.228071 I  AVFrame.width or height is not set
3262016-03-26 18:40:58.228834 I  AVFrame.format is not set
3272016-03-26 18:40:58.228838 I  AVFrame.width or height is not set
3282016-03-26 18:40:58.233644 I  Inserting 0 I-Frames after #2
3292016-03-26 18:40:59.510180 I  AVFrame.format is not set
3302016-03-26 18:40:59.510186 I  AVFrame.width or height is not set
3312016-03-26 18:40:59.511411 I  AVFrame.format is not set
3322016-03-26 18:40:59.511415 I  AVFrame.width or height is not set
3332016-03-26 18:40:59.517727 I  Inserting 0 I-Frames after #32
3342016-03-26 18:41:00.466028 I  AVFrame.format is not set
3352016-03-26 18:41:00.466036 I  AVFrame.width or height is not set
3362016-03-26 18:41:00.467431 I  AVFrame.format is not set
3372016-03-26 18:41:00.467436 I  AVFrame.width or height is not set
3382016-03-26 18:41:00.473958 I  Inserting 0 I-Frames after #17
3392016-03-26 18:41:01.222835 I  AVFrame.format is not set
3402016-03-26 18:41:01.222840 I  AVFrame.width or height is not set
3412016-03-26 18:41:01.223763 I  AVFrame.format is not set
3422016-03-26 18:41:01.223767 I  AVFrame.width or height is not set
3432016-03-26 18:41:01.227973 I  Inserting 0 I-Frames after #29
3442016-03-26 18:41:02.980539 I  AVFrame.format is not set
3452016-03-26 18:41:02.980545 I  AVFrame.width or height is not set
3462016-03-26 18:41:02.981586 I  AVFrame.format is not set
3472016-03-26 18:41:02.981589 I  AVFrame.width or height is not set
3482016-03-26 18:41:02.987648 I  Inserting 0 I-Frames after #20
3492016-03-26 18:41:03.913701 I  AVFrame.format is not set
3502016-03-26 18:41:03.913707 I  AVFrame.width or height is not set
3512016-03-26 18:41:03.914697 I  AVFrame.format is not set
3522016-03-26 18:41:03.914701 I  AVFrame.width or height is not set
3532016-03-26 18:41:03.919596 I  Inserting 0 I-Frames after #26
3542016-03-26 18:41:05.712282 I  AVFrame.format is not set
3552016-03-26 18:41:05.712287 I  AVFrame.width or height is not set
3562016-03-26 18:41:05.713464 I  AVFrame.format is not set
3572016-03-26 18:41:05.713468 I  AVFrame.width or height is not set
3582016-03-26 18:41:05.718097 I  Inserting 0 I-Frames after #23
3592016-03-26 18:41:06.740341 I  AVFrame.format is not set
3602016-03-26 18:41:06.740348 I  AVFrame.width or height is not set
3612016-03-26 18:41:06.741936 I  AVFrame.format is not set
3622016-03-26 18:41:06.741941 I  AVFrame.width or height is not set
3632016-03-26 18:41:06.748021 I  Inserting 0 I-Frames after #2
3642016-03-26 18:41:08.196881 I  AVFrame.format is not set
3652016-03-26 18:41:08.196887 I  AVFrame.width or height is not set
3662016-03-26 18:41:08.198062 I  AVFrame.format is not set
3672016-03-26 18:41:08.198066 I  AVFrame.width or height is not set
3682016-03-26 18:41:08.203887 I  Inserting 0 I-Frames after #44
3692016-03-26 18:41:08.332611 I  PES packet size mismatch
3702016-03-26 18:41:08.332663 I  PES packet size mismatch
3712016-03-26 18:41:08.338882 I  Generating Keyframe Index
3722016-03-26 18:41:08.338889 I  Opening /tmp/out.ts
3732016-03-26 18:41:08.348546 I  Input #0, mpeg, from '/tmp/out.ts':
3742016-03-26 18:41:08.348562 I    Duration: 00:59:58.42, start: 0.360000, bitrate: 13443 kb/s
3752016-03-26 18:41:08.348607 I      Stream #0:0[0x1e0]: Video: mpeg2video (Main), yuv420p(tv), 1280x720 [SAR 1:1 DAR 16:9], max. 25000 kb/s, 59.94 fps, 59.94 tbr, 90k tbn, 119.88 tbc
3762016-03-26 18:41:08.348633 I      Stream #0:1[0x80]: Audio: ac3, 48000 Hz, 5.1(side), fltp, 384 kb/s
3772016-03-26 18:41:08.348656 I      Stream #0:2[0x81]: Audio: ac3, 48000 Hz, stereo, fltp, 192 kb/s
3782016-03-26 18:41:11.687297 I  DTS 120842359 < 120842657 out of order
3792016-03-26 18:41:13.703916 I  DTS 192965410 < 192965707 out of order
3802016-03-26 18:41:13.924121 I  DTS 201977413 < 201977711 out of order
3812016-03-26 18:41:15.129964 I  DTS 247050942 < 247051240 out of order
3822016-03-26 18:41:16.352007 I  DTS 292124470 < 292124769 out of order
3832016-03-26 18:41:16.681830 I  DTS 305651484 < 305651781 out of order
3842016-03-26 18:41:16.683341 I  Invalid timestamps stream=0, pts=305716048, dts=305716324, size=2015
3852016-03-26 18:41:16.683424 I  Invalid timestamps stream=0, pts=305719051, dts=305719326, size=2015
3862016-03-26 18:41:16.683541 I  Invalid timestamps stream=0, pts=305723556, dts=305723829, size=2015
3872016-03-26 18:41:16.683661 I  Invalid timestamps stream=0, pts=305726559, dts=305726831, size=2015
3882016-03-26 18:41:16.683757 I  Invalid timestamps stream=0, pts=305731063, dts=305731334, size=2015
3892016-03-26 18:41:16.683851 I  Invalid timestamps stream=0, pts=305734066, dts=305734336, size=2015
3902016-03-26 18:41:16.683957 I  Invalid timestamps stream=0, pts=305738571, dts=305738839, size=2015
3912016-03-26 18:41:16.684060 I  Invalid timestamps stream=0, pts=305741574, dts=305741841, size=2015
3922016-03-26 18:41:16.684172 I  Invalid timestamps stream=0, pts=305746078, dts=305746344, size=2015
3932016-03-26 18:41:16.684307 I  Invalid timestamps stream=0, pts=305749081, dts=305749346, size=2015
3942016-03-26 18:41:16.684432 I  Invalid timestamps stream=0, pts=305753586, dts=305753849, size=2015
3952016-03-26 18:41:16.684549 I  Invalid timestamps stream=0, pts=305756589, dts=305756851, size=2015
3962016-03-26 18:41:16.690244 I  Invalid timestamps stream=0, pts=305921754, dts=305921961, size=2015
3972016-03-26 18:41:16.690364 I  Invalid timestamps stream=0, pts=305926258, dts=305926464, size=2015
3982016-03-26 18:41:16.690472 I  Invalid timestamps stream=0, pts=305929261, dts=305929466, size=2015
3992016-03-26 18:41:16.690598 I  Invalid timestamps stream=0, pts=305933766, dts=305933969, size=2015
4002016-03-26 18:41:16.690721 I  Invalid timestamps stream=0, pts=305936769, dts=305936971, size=2015
4012016-03-26 18:41:16.690837 I  Invalid timestamps stream=0, pts=305941273, dts=305941474, size=2015
4022016-03-26 18:41:16.690953 I  Invalid timestamps stream=0, pts=305944276, dts=305944476, size=2015
4032016-03-26 18:41:16.691058 I  Invalid timestamps stream=0, pts=305948781, dts=305948979, size=2015
4042016-03-26 18:41:16.691149 I  Invalid timestamps stream=0, pts=305951784, dts=305951981, size=2015
4052016-03-26 18:41:16.691277 I  Invalid timestamps stream=0, pts=305956288, dts=305956484, size=2015
4062016-03-26 18:41:16.691387 I  Invalid timestamps stream=0, pts=305959291, dts=305959486, size=2015
4072016-03-26 18:41:16.691506 I  Invalid timestamps stream=0, pts=305963796, dts=305963989, size=2015
4082016-03-26 18:41:16.691599 I  Invalid timestamps stream=0, pts=305966799, dts=305966991, size=2015
4092016-03-26 18:41:16.691763 I  Invalid timestamps stream=0, pts=305971303, dts=305971494, size=2015
4102016-03-26 18:41:16.691878 I  Invalid timestamps stream=0, pts=305974306, dts=305974496, size=2015
4112016-03-26 18:41:16.692003 I  Invalid timestamps stream=0, pts=305978811, dts=305978999, size=2015
4122016-03-26 18:41:16.692128 I  Invalid timestamps stream=0, pts=305981814, dts=305982001, size=2015
4132016-03-26 18:41:16.694332 I  Invalid timestamps stream=0, pts=306053886, dts=306054049, size=2015
4142016-03-26 18:41:16.694454 I  Invalid timestamps stream=0, pts=306056889, dts=306057051, size=2015
4152016-03-26 18:41:16.694550 I  Invalid timestamps stream=0, pts=306061393, dts=306061554, size=2015
4162016-03-26 18:41:16.694646 I  Invalid timestamps stream=0, pts=306064396, dts=306064556, size=2015
4172016-03-26 18:41:16.694768 I  Invalid timestamps stream=0, pts=306068901, dts=306069059, size=2015
4182016-03-26 18:41:16.694860 I  Invalid timestamps stream=0, pts=306071904, dts=306072061, size=2015
4192016-03-26 18:41:16.694966 I  Invalid timestamps stream=0, pts=306076408, dts=306076564, size=2015
4202016-03-26 18:41:16.695092 I  Invalid timestamps stream=0, pts=306079411, dts=306079566, size=2015
4212016-03-26 18:41:16.695198 I  Invalid timestamps stream=0, pts=306083916, dts=306084069, size=2015
4222016-03-26 18:41:16.695310 I  Invalid timestamps stream=0, pts=306086919, dts=306087071, size=2015
4232016-03-26 18:41:16.695430 I  Invalid timestamps stream=0, pts=306091423, dts=306091574, size=2015
4242016-03-26 18:41:16.695554 I  Invalid timestamps stream=0, pts=306094426, dts=306094576, size=2015
4252016-03-26 18:41:16.695682 I  Invalid timestamps stream=0, pts=306098931, dts=306099079, size=2015
4262016-03-26 18:41:16.695790 I  Invalid timestamps stream=0, pts=306101934, dts=306102081, size=2015
4272016-03-26 18:41:16.695930 I  Invalid timestamps stream=0, pts=306106438, dts=306106584, size=2015
4282016-03-26 18:41:16.696034 I  Invalid timestamps stream=0, pts=306109441, dts=306109586, size=2015
4292016-03-26 18:41:16.696167 I  Invalid timestamps stream=0, pts=306113946, dts=306114089, size=2015
4302016-03-26 18:41:16.696314 I  Invalid timestamps stream=0, pts=306116949, dts=306117091, size=2015
4312016-03-26 18:41:16.696425 I  Invalid timestamps stream=0, pts=306121453, dts=306121594, size=2015
4322016-03-26 18:41:16.696570 I  Invalid timestamps stream=0, pts=306124456, dts=306124596, size=2015
4332016-03-26 18:41:16.696648 I  Invalid timestamps stream=0, pts=306128961, dts=306129099, size=2015
4342016-03-26 18:41:16.696752 I  Invalid timestamps stream=0, pts=306131964, dts=306132101, size=2015
4352016-03-26 18:41:16.696860 I  Invalid timestamps stream=0, pts=306136468, dts=306136604, size=2015
4362016-03-26 18:41:16.696948 I  Invalid timestamps stream=0, pts=306139471, dts=306139606, size=2015
4372016-03-26 18:41:16.697055 I  Invalid timestamps stream=0, pts=306143976, dts=306144109, size=2015
4382016-03-26 18:41:17.220536 N  Transcode Completed
4392016-03-26 18:41:17.229114 N  Transcoding /mythtv/5619_20160325050000.ts done
4402016-03-26 18:41:17.229705 N  Transcode: delete old file: waiting while program is in use.
4412016-03-26 18:41:17.230126 N  Transcode: program is no longer in use.
4422016-03-26 18:41:17.292411 E  mythtranscode: Error Renaming '/mythtv/5619_20160325050000.ts.tmp' to '/mythtv/5619_20160325050000.ts'
443                        eno: No such file or directory (2)
4442016-03-26 18:41:17.442664 I  MythCoreContext::ConnectCommandSocket(): Connecting to backend server: 192.168.0.5:6543 (try 1 of 1)
4452016-03-26 18:41:17.446491 I  MythCoreContext::CheckProtoVersion(): Using protocol version 88 XmasGift
4462016-03-26 18:41:17.467515 N  Requesting delete for file 'myth://Default@fs/5619_20160325050000.ts.-1.100x56.png'.
4472016-03-26 18:41:17.470057 N  Requesting delete for file 'myth://Default@fs/5619_20160325050000.ts.png'.
4482016-03-26 18:41:17.475061 I  Waiting for threads to exit.