Ticket #12771: ffmpeg_recording_info.txt

File ffmpeg_recording_info.txt, 548 bytes (added by rcrdnalor, 3 years ago)

Ubuntu 18.04 ffmpeg file info

Line 
1Input #0, mpegts, from '/mnt/mydata01/data01/recordings/2105_20180623092500.ts':
2  Duration: 00:18:24.38, start: 8513.966456, bitrate: 9894 kb/s
3    Stream #0:0[0xdff]: Video: h264 (High), yuv420p(top first), 1920x1080 [SAR 1:1 DAR 16:9], 25 fps, 25 tbr, 90k tbn, 50 tbc
4    Stream #0:1[0xe00](ger): Audio: mp2, 48000 Hz, stereo, s16p, 160 kb/s
5    Stream #0:2[0xe01](eng): Audio: mp2, 48000 Hz, stereo, s16p, 160 kb/s
6    Stream #0:3[0xe03](ger): Audio: ac3, 48000 Hz, 5.1(side), fltp, 384 kb/s
7    Stream #0:4[0xe04](ger): Subtitle: dvb_teletext