Ticket #12845: transcode log for Hogans Hero.txt

File transcode log for Hogans Hero.txt, 17.0 KB (added by jfabernathy@…, 4 years ago)

console log of mythtranscode issue

Line 
1jim@mythbuntu:~$ mythtranscode --chanid 1502 --starttime 20160804020000 --mpeg2 --honorcutlist -o Videos/hogans_test.mpg
22016-08-04 09:59:10.800049 C  mythtranscode version: fixes/0.28 [v0.28-46-ge5ce273] www.mythtv.org
32016-08-04 09:59:10.800064 C  Qt version: compile: 5.2.1, runtime: 5.2.1
42016-08-04 09:59:10.800067 N  Enabled verbose msgs:  general
52016-08-04 09:59:10.800074 N  Setting Log Level to LOG_INFO
62016-08-04 09:59:10.810669 I  Added logging to the console
72016-08-04 09:59:10.810994 I  Setup Interrupt handler
82016-08-04 09:59:10.811003 I  Setup Terminated handler
92016-08-04 09:59:10.811008 I  Setup Segmentation fault handler
102016-08-04 09:59:10.811013 I  Setup Aborted handler
112016-08-04 09:59:10.811018 I  Setup Bus error handler
122016-08-04 09:59:10.811023 I  Setup Floating point exception handler
132016-08-04 09:59:10.811028 I  Setup Illegal instruction handler
142016-08-04 09:59:10.811035 I  Setup Real-time signal 0 handler
152016-08-04 09:59:10.811042 I  Setup Hangup handler
162016-08-04 09:59:10.811134 N  Using runtime prefix = /usr
172016-08-04 09:59:10.811139 N  Using configuration directory = /home/jim/.mythtv
182016-08-04 09:59:10.811176 I  Assumed character encoding: en_US.UTF-8
192016-08-04 09:59:10.811421 N  Empty LocalHostName.
202016-08-04 09:59:10.811425 I  Using localhost value of mythbuntu
212016-08-04 09:59:10.822299 N  Setting QT default locale to EN_US
222016-08-04 09:59:10.822311 I  Current locale EN_US
232016-08-04 09:59:10.822363 N  Reading locale defaults from /usr/share/mythtv//locales/en_us.xml
242016-08-04 09:59:10.827636 I  Loading en_us translation for module mythfrontend
252016-08-04 09:59:10.829619 N  Transcoding from /media/recording-tv-2/1502_20160804020000.ts to Videos/hogans_test.mpg
262016-08-04 09:59:10.829633 I  Honoring the cutlist while transcoding
272016-08-04 09:59:10.832825 I  Opening /media/recording-tv-2/1502_20160804020000.ts
282016-08-04 09:59:10.841809 I  PES packet size mismatch
292016-08-04 09:59:10.841823 I  PES packet size mismatch
302016-08-04 09:59:10.841858 I  Input #0, mpegts, from '/media/recording-tv-2/1502_20160804020000.ts':
312016-08-04 09:59:10.841872 I    Duration: 00:30:29.84, start: 13076.220911, bitrate: 2776 kb/s
322016-08-04 09:59:10.841949 I      Stream #0:0[0x41]: Video: mpeg2video (Main), yuv420p(tv, smpte170m), 704x480 [SAR 10:11 DAR 4:3], max. 3106 kb/s, 29.97 fps, 29.97 tbr, 90k tbn, 59.94 tbc
332016-08-04 09:59:10.841987 I      Stream #0:1[0x44](eng): Audio: ac3 (AC-3 / 0x332D4341), 48000 Hz, stereo, fltp, 192 kb/s
342016-08-04 09:59:10.842012 I      Stream #0:2[0x45](spa): Audio: ac3 (AC-3 / 0x332D4341), 48000 Hz, stereo, fltp, 128 kb/s (visual impaired)
352016-08-04 09:59:10.843550 I  #0 PTS:03:37:56.798 Delta: 0.0ms queue: 17
362016-08-04 09:59:10.843587 I  #1 PTS:03:37:56.796 Delta: 2.01111ms queue: 2
372016-08-04 09:59:10.843603 I  #2 PTS:03:37:56.792 Delta: 5.98889ms queue: 2
382016-08-04 09:59:10.862570 I  Del map found 0 at 790 (790)
392016-08-04 09:59:10.870142 I  AVFrame.format is not set
402016-08-04 09:59:10.870146 I  AVFrame.width or height is not set
412016-08-04 09:59:10.870471 I  AVFrame.format is not set
422016-08-04 09:59:10.870475 I  AVFrame.width or height is not set
432016-08-04 09:59:10.874972 I  Converting frame #12 from B to I
442016-08-04 09:59:10.875285 I  AVFrame.format is not set
452016-08-04 09:59:10.875289 I  AVFrame.width or height is not set
462016-08-04 09:59:10.875447 I  AVFrame.format is not set
472016-08-04 09:59:10.875450 I  AVFrame.width or height is not set
482016-08-04 09:59:10.876220 I  Converting frame #13 from B to I
492016-08-04 09:59:10.876510 I  AVFrame.format is not set
502016-08-04 09:59:10.876513 I  AVFrame.width or height is not set
512016-08-04 09:59:10.876615 I  AVFrame.format is not set
522016-08-04 09:59:10.876617 I  AVFrame.width or height is not set
532016-08-04 09:59:10.877394 I  Converting frame #14 from P to I
542016-08-04 09:59:10.885508 I  Mux rate: 3.48 Mbit/s
552016-08-04 09:59:10.972416 I  PES packet size mismatch
562016-08-04 09:59:10.972510 I  PES packet size mismatch
572016-08-04 09:59:11.004297 N  Frame 12 > 11.  Corruption likely at pos: 23725600
582016-08-04 09:59:11.004551 I  AVFrame.format is not set
592016-08-04 09:59:11.004555 I  AVFrame.width or height is not set
602016-08-04 09:59:11.004864 I  AVFrame.format is not set
612016-08-04 09:59:11.004867 I  AVFrame.width or height is not set
622016-08-04 09:59:11.006590 I  Inserting 2 I-Frames after #11
632016-08-04 09:59:11.339783 I  Del map found 1 at 5556 (5556)
642016-08-04 09:59:11.420284 I  Del map found 0 at 6489 (6489)
652016-08-04 09:59:11.936889 I  PES packet size mismatch
662016-08-04 09:59:11.937041 I  PES packet size mismatch
672016-08-04 09:59:12.360456 I  PES packet size mismatch
682016-08-04 09:59:12.360519 I  PES packet size mismatch
692016-08-04 09:59:12.371578 I  PES packet size mismatch
702016-08-04 09:59:12.371668 I  PES packet size mismatch
712016-08-04 09:59:12.411237 I  PES packet size mismatch
722016-08-04 09:59:12.411299 I  PES packet size mismatch
732016-08-04 09:59:12.417303 N  Frame 6 > 5.  Corruption likely at pos: 192182436
742016-08-04 09:59:12.417722 I  AVFrame.format is not set
752016-08-04 09:59:12.417727 I  AVFrame.width or height is not set
762016-08-04 09:59:12.418178 I  AVFrame.format is not set
772016-08-04 09:59:12.418191 I  AVFrame.width or height is not set
782016-08-04 09:59:12.421135 I  Inserting 1 I-Frames after #5
792016-08-04 09:59:12.593777 I  PES packet size mismatch
802016-08-04 09:59:12.593827 I  PES packet size mismatch
812016-08-04 09:59:12.602077 I  AVFrame.format is not set
822016-08-04 09:59:12.602083 I  AVFrame.width or height is not set
832016-08-04 09:59:12.602446 I  AVFrame.format is not set
842016-08-04 09:59:12.602451 I  AVFrame.width or height is not set
852016-08-04 09:59:12.605359 I  Inserting 2 I-Frames after #11
862016-08-04 09:59:12.688644 I  PES packet size mismatch
872016-08-04 09:59:12.688701 I  PES packet size mismatch
882016-08-04 09:59:12.695498 I  AVFrame.format is not set
892016-08-04 09:59:12.695501 I  AVFrame.width or height is not set
902016-08-04 09:59:12.695789 I  AVFrame.format is not set
912016-08-04 09:59:12.695792 I  AVFrame.width or height is not set
922016-08-04 09:59:12.697479 I  Inserting 1 I-Frames after #11
932016-08-04 09:59:13.055499 I  Del map found 1 at 22809 (22809)
942016-08-04 09:59:13.063569 I  AVFrame.format is not set
952016-08-04 09:59:13.063577 I  AVFrame.width or height is not set
962016-08-04 09:59:13.064080 I  AVFrame.format is not set
972016-08-04 09:59:13.064086 I  AVFrame.width or height is not set
982016-08-04 09:59:13.066197 I  Converting frame #12 from B to I
992016-08-04 09:59:13.066936 I  AVFrame.format is not set
1002016-08-04 09:59:13.066942 I  AVFrame.width or height is not set
1012016-08-04 09:59:13.067413 I  AVFrame.format is not set
1022016-08-04 09:59:13.067420 I  AVFrame.width or height is not set
1032016-08-04 09:59:13.069183 I  Converting frame #13 from B to I
1042016-08-04 09:59:13.069531 I  AVFrame.format is not set
1052016-08-04 09:59:13.069535 I  AVFrame.width or height is not set
1062016-08-04 09:59:13.069749 I  AVFrame.format is not set
1072016-08-04 09:59:13.069751 I  AVFrame.width or height is not set
1082016-08-04 09:59:13.070683 I  Converting frame #14 from P to I
1092016-08-04 09:59:13.156697 I  PES packet size mismatch
1102016-08-04 09:59:13.156732 I  PES packet size mismatch
1112016-08-04 09:59:13.218253 I  PES packet size mismatch
1122016-08-04 09:59:13.242039 I  PES packet size mismatch
1132016-08-04 09:59:13.242070 I  PES packet size mismatch
1142016-08-04 09:59:13.731860 I  PES packet size mismatch
1152016-08-04 09:59:13.845137 I  Del map found 0 at 30337 (30337)
1162016-08-04 09:59:13.846969 I  AVFrame.format is not set
1172016-08-04 09:59:13.846973 I  AVFrame.width or height is not set
1182016-08-04 09:59:13.847309 I  AVFrame.format is not set
1192016-08-04 09:59:13.847313 I  AVFrame.width or height is not set
1202016-08-04 09:59:13.848347 I  Converting frame #9 from B to I
1212016-08-04 09:59:13.848688 I  AVFrame.format is not set
1222016-08-04 09:59:13.848691 I  AVFrame.width or height is not set
1232016-08-04 09:59:13.848973 I  AVFrame.format is not set
1242016-08-04 09:59:13.848976 I  AVFrame.width or height is not set
1252016-08-04 09:59:13.850105 I  Converting frame #10 from B to I
1262016-08-04 09:59:13.850457 I  AVFrame.format is not set
1272016-08-04 09:59:13.850461 I  AVFrame.width or height is not set
1282016-08-04 09:59:13.850793 I  AVFrame.format is not set
1292016-08-04 09:59:13.850796 I  AVFrame.width or height is not set
1302016-08-04 09:59:13.851740 I  Converting frame #11 from P to I
1312016-08-04 09:59:14.087699 I  PES packet size mismatch
1322016-08-04 09:59:14.088515 I  PES packet size mismatch
1332016-08-04 09:59:14.094308 N  Frame 12 > 11.  Corruption likely at pos: 380030532
1342016-08-04 09:59:14.094577 I  AVFrame.format is not set
1352016-08-04 09:59:14.094580 I  AVFrame.width or height is not set
1362016-08-04 09:59:14.094914 I  AVFrame.format is not set
1372016-08-04 09:59:14.094917 I  AVFrame.width or height is not set
1382016-08-04 09:59:14.096614 I  Inserting 3 I-Frames after #11
1392016-08-04 09:59:14.104037 I  PES packet size mismatch
1402016-08-04 09:59:14.108688 N  Frame 6 > 5.  Corruption likely at pos: 380607880
1412016-08-04 09:59:14.109032 I  AVFrame.format is not set
1422016-08-04 09:59:14.109038 I  AVFrame.width or height is not set
1432016-08-04 09:59:14.109410 I  AVFrame.format is not set
1442016-08-04 09:59:14.109414 I  AVFrame.width or height is not set
1452016-08-04 09:59:14.112351 I  Inserting 1 I-Frames after #5
1462016-08-04 09:59:14.279484 I  PES packet size mismatch
1472016-08-04 09:59:14.279568 I  PES packet size mismatch
1482016-08-04 09:59:14.279691 I  PES packet size mismatch
1492016-08-04 09:59:14.279733 I  PES packet size mismatch
1502016-08-04 09:59:14.282797 N  Frame 6 > 2.  Corruption likely at pos: 400498844
1512016-08-04 09:59:14.283316 I  AVFrame.format is not set
1522016-08-04 09:59:14.283322 I  AVFrame.width or height is not set
1532016-08-04 09:59:14.283876 I  AVFrame.format is not set
1542016-08-04 09:59:14.283882 I  AVFrame.width or height is not set
1552016-08-04 09:59:14.286892 I  Inserting 6 I-Frames after #2
1562016-08-04 09:59:14.292573 I  PES packet size mismatch
1572016-08-04 09:59:14.292693 I  PES packet size mismatch
1582016-08-04 09:59:14.300905 I  AVFrame.format is not set
1592016-08-04 09:59:14.300909 I  AVFrame.width or height is not set
1602016-08-04 09:59:14.301158 I  AVFrame.format is not set
1612016-08-04 09:59:14.301161 I  AVFrame.width or height is not set
1622016-08-04 09:59:14.303122 I  Inserting 3 I-Frames after #14
1632016-08-04 09:59:14.312265 I  PES packet size mismatch
1642016-08-04 09:59:14.315545 N  Frame 3 > 2.  Corruption likely at pos: 402141400
1652016-08-04 09:59:14.315821 I  AVFrame.format is not set
1662016-08-04 09:59:14.315825 I  AVFrame.width or height is not set
1672016-08-04 09:59:14.316121 I  AVFrame.format is not set
1682016-08-04 09:59:14.316124 I  AVFrame.width or height is not set
1692016-08-04 09:59:14.317916 I  Inserting 1 I-Frames after #2
1702016-08-04 09:59:14.410119 I  PES packet size mismatch
1712016-08-04 09:59:14.717544 I  PES packet size mismatch
1722016-08-04 09:59:14.717639 I  PES packet size mismatch
1732016-08-04 09:59:14.725716 N  Frame 9 > 8.  Corruption likely at pos: 446290380
1742016-08-04 09:59:14.725974 I  AVFrame.format is not set
1752016-08-04 09:59:14.725977 I  AVFrame.width or height is not set
1762016-08-04 09:59:14.726269 I  AVFrame.format is not set
1772016-08-04 09:59:14.726272 I  AVFrame.width or height is not set
1782016-08-04 09:59:14.728061 I  Inserting 3 I-Frames after #8
1792016-08-04 09:59:14.785301 I  PES packet size mismatch
1802016-08-04 09:59:14.830559 I  PES packet size mismatch
1812016-08-04 09:59:14.830621 I  PES packet size mismatch
1822016-08-04 09:59:14.980864 I  PES packet size mismatch
1832016-08-04 09:59:14.983289 I  PES packet size mismatch
1842016-08-04 09:59:14.983405 I  PES packet size mismatch
1852016-08-04 09:59:15.061642 I  PES packet size mismatch
1862016-08-04 09:59:15.061698 I  PES packet size mismatch
1872016-08-04 09:59:15.062476 I  PES packet size mismatch
1882016-08-04 09:59:15.063080 I  PES packet size mismatch
1892016-08-04 09:59:15.066645 N  Frame 6 > 5.  Corruption likely at pos: 486114984
1902016-08-04 09:59:15.067012 I  AVFrame.format is not set
1912016-08-04 09:59:15.067018 I  AVFrame.width or height is not set
1922016-08-04 09:59:15.067449 I  AVFrame.format is not set
1932016-08-04 09:59:15.067453 I  AVFrame.width or height is not set
1942016-08-04 09:59:15.069747 I  Inserting 3 I-Frames after #5
1952016-08-04 09:59:15.074897 N  Frame 6 > 5.  Corruption likely at pos: 486269332
1962016-08-04 09:59:15.075135 I  AVFrame.format is not set
1972016-08-04 09:59:15.075139 I  AVFrame.width or height is not set
1982016-08-04 09:59:15.075270 I  AVFrame.format is not set
1992016-08-04 09:59:15.075273 I  AVFrame.width or height is not set
2002016-08-04 09:59:15.076835 I  Inserting 1 I-Frames after #5
2012016-08-04 09:59:15.116191 I  PES packet size mismatch
2022016-08-04 09:59:15.116229 I  PES packet size mismatch
2032016-08-04 09:59:15.125760 I  PES packet size mismatch
2042016-08-04 09:59:15.125851 I  PES packet size mismatch
2052016-08-04 09:59:15.262176 I  PES packet size mismatch
2062016-08-04 09:59:15.262238 I  PES packet size mismatch
2072016-08-04 09:59:15.512759 I  Del map found 1 at 46391 (46391)
2082016-08-04 09:59:15.520091 I  AVFrame.format is not set
2092016-08-04 09:59:15.520095 I  AVFrame.width or height is not set
2102016-08-04 09:59:15.520385 I  AVFrame.format is not set
2112016-08-04 09:59:15.520388 I  AVFrame.width or height is not set
2122016-08-04 09:59:15.521358 I  Converting frame #9 from B to I
2132016-08-04 09:59:15.521693 I  AVFrame.format is not set
2142016-08-04 09:59:15.521696 I  AVFrame.width or height is not set
2152016-08-04 09:59:15.521900 I  AVFrame.format is not set
2162016-08-04 09:59:15.521903 I  AVFrame.width or height is not set
2172016-08-04 09:59:15.522813 I  Converting frame #10 from B to I
2182016-08-04 09:59:15.523119 I  AVFrame.format is not set
2192016-08-04 09:59:15.523122 I  AVFrame.width or height is not set
2202016-08-04 09:59:15.523350 I  AVFrame.format is not set
2212016-08-04 09:59:15.523353 I  AVFrame.width or height is not set
2222016-08-04 09:59:15.524259 I  Converting frame #11 from P to I
2232016-08-04 09:59:15.808688 I  PES packet size mismatch
2242016-08-04 09:59:15.881443 I  Del map found 0 at 50301 (50301)
2252016-08-04 09:59:15.884029 I  AVFrame.format is not set
2262016-08-04 09:59:15.884033 I  AVFrame.width or height is not set
2272016-08-04 09:59:15.884346 I  AVFrame.format is not set
2282016-08-04 09:59:15.884350 I  AVFrame.width or height is not set
2292016-08-04 09:59:15.885261 I  Converting frame #3 from B to I
2302016-08-04 09:59:15.885799 I  AVFrame.format is not set
2312016-08-04 09:59:15.885802 I  AVFrame.width or height is not set
2322016-08-04 09:59:15.885927 I  AVFrame.format is not set
2332016-08-04 09:59:15.885930 I  AVFrame.width or height is not set
2342016-08-04 09:59:15.886758 I  Converting frame #4 from B to I
2352016-08-04 09:59:15.887838 I  AVFrame.format is not set
2362016-08-04 09:59:15.887841 I  AVFrame.width or height is not set
2372016-08-04 09:59:15.887953 I  AVFrame.format is not set
2382016-08-04 09:59:15.887955 I  AVFrame.width or height is not set
2392016-08-04 09:59:15.888840 I  Converting frame #5 from P to I
2402016-08-04 09:59:16.051274 I  PES packet size mismatch
2412016-08-04 09:59:16.057841 I  AVFrame.format is not set
2422016-08-04 09:59:16.057845 I  AVFrame.width or height is not set
2432016-08-04 09:59:16.058076 I  AVFrame.format is not set
2442016-08-04 09:59:16.058079 I  AVFrame.width or height is not set
2452016-08-04 09:59:16.059903 I  Inserting 1 I-Frames after #8
2462016-08-04 09:59:16.139199 I  PES packet size mismatch
2472016-08-04 09:59:16.144170 I  PES packet size mismatch
2482016-08-04 09:59:16.333949 I  Del map found 1 at 54258 (54258)
2492016-08-04 09:59:16.353671 I  PES packet size mismatch
2502016-08-04 09:59:16.353686 I  PES packet size mismatch
2512016-08-04 09:59:16.354389 I  Generating Keyframe Index
2522016-08-04 09:59:16.354394 I  Opening Videos/hogans_test.mpg
2532016-08-04 09:59:16.357210 I  Input #0, mpeg, from 'Videos/hogans_test.mpg':
2542016-08-04 09:59:16.357219 I    Duration: 00:22:52.34, start: 0.299256, bitrate: 2715 kb/s
2552016-08-04 09:59:16.357246 I      Stream #0:0[0x1e0]: Video: mpeg2video (Main), yuv420p(tv, smpte170m), 704x480 [SAR 10:11 DAR 4:3], max. 3106 kb/s, 29.97 fps, 29.97 tbr, 90k tbn, 59.94 tbc
2562016-08-04 09:59:16.357261 I      Stream #0:1[0x81]: Audio: ac3, 48000 Hz, stereo, fltp, 128 kb/s (visual impaired)
2572016-08-04 09:59:16.357272 I      Stream #0:2[0x80]: Audio: ac3, 48000 Hz, stereo, fltp, 192 kb/s
2582016-08-04 09:59:16.969564 N  Transcode Completed
2592016-08-04 09:59:16.974228 N  Transcoding /media/recording-tv-2/1502_20160804020000.ts done
2602016-08-04 09:59:16.974469 N  Transcode: delete old file: waiting while program is in use.
2612016-08-04 09:59:16.974629 N  Transcode: program is no longer in use.
2622016-08-04 09:59:16.975187 E  mythtranscode: Error Renaming '/media/recording-tv-2/1502_20160804020000.ts.tmp' to '/media/recording-tv-2/1502_20160804020000.ts'
263                        eno: No such file or directory (2)
2642016-08-04 09:59:16.975994 N  Requesting delete for file 'myth://Default@mythbuntu/1502_20160804020000.ts.old'.
2652016-08-04 09:59:16.977398 I  MythCoreContext::ConnectCommandSocket(): Connecting to backend server: 192.168.0.205:6543 (try 1 of 1)
2662016-08-04 09:59:16.978530 I  MythCoreContext::CheckProtoVersion(): Using protocol version 88 XmasGift
2672016-08-04 09:59:16.981807 N  Requesting delete for file 'myth://Default@mythbuntu/1502_20160804020000.ts.png'.
2682016-08-04 09:59:16.983994 I  Waiting for threads to exit.
269jim@mythbuntu:~$