Ticket #13292: skynews-ts-data.txt

File skynews-ts-data.txt, 9.2 KB (added by Mike Bibbings, 3 years ago)
Line 
1mike@myth-server-1:/myth4/mythtv/recordings$ ffmpeg -i 3233_20180605163800.ts
2ffmpeg version 3.4.2-2 Copyright (c) 2000-2018 the FFmpeg developers
3  built with gcc 7 (Ubuntu 7.3.0-16ubuntu2)
4  configuration: --prefix=/usr --extra-version=2 --toolchain=hardened --libdir=/usr/lib/x86_64-linux-gnu --incdir=/usr/include/x86_64-linux-gnu --enable-gpl --disable-stripping --enable-avresample --enable-avisynth --enable-gnutls --enable-ladspa --enable-libass --enable-libbluray --enable-libbs2b --enable-libcaca --enable-libcdio --enable-libflite --enable-libfontconfig --enable-libfreetype --enable-libfribidi --enable-libgme --enable-libgsm --enable-libmp3lame --enable-libmysofa --enable-libopenjpeg --enable-libopenmpt --enable-libopus --enable-libpulse --enable-librubberband --enable-librsvg --enable-libshine --enable-libsnappy --enable-libsoxr --enable-libspeex --enable-libssh --enable-libtheora --enable-libtwolame --enable-libvorbis --enable-libvpx --enable-libwavpack --enable-libwebp --enable-libx265 --enable-libxml2 --enable-libxvid --enable-libzmq --enable-libzvbi --enable-omx --enable-openal --enable-opengl --enable-sdl2 --enable-libdc1394 --enable-libdrm --enable-libiec61883 --enable-chromaprint --enable-frei0r --enable-libopencv --enable-libx264 --enable-shared
5  WARNING: library configuration mismatch
6  avcodec     configuration: --prefix=/usr --extra-version=2 --toolchain=hardened --libdir=/usr/lib/x86_64-linux-gnu --incdir=/usr/include/x86_64-linux-gnu --enable-gpl --disable-stripping --enable-avresample --enable-avisynth --enable-gnutls --enable-ladspa --enable-libass --enable-libbluray --enable-libbs2b --enable-libcaca --enable-libcdio --enable-libflite --enable-libfontconfig --enable-libfreetype --enable-libfribidi --enable-libgme --enable-libgsm --enable-libmp3lame --enable-libmysofa --enable-libopenjpeg --enable-libopenmpt --enable-libopus --enable-libpulse --enable-librubberband --enable-librsvg --enable-libshine --enable-libsnappy --enable-libsoxr --enable-libspeex --enable-libssh --enable-libtheora --enable-libtwolame --enable-libvorbis --enable-libvpx --enable-libwavpack --enable-libwebp --enable-libx265 --enable-libxml2 --enable-libxvid --enable-libzmq --enable-libzvbi --enable-omx --enable-openal --enable-opengl --enable-sdl2 --enable-libdc1394 --enable-libdrm --enable-libiec61883 --enable-chromaprint --enable-frei0r --enable-libopencv --enable-libx264 --enable-shared --enable-version3 --disable-doc --disable-programs --enable-libopencore_amrnb --enable-libopencore_amrwb --enable-libtesseract --enable-libvo_amrwbenc
7  libavutil      55. 78.100 / 55. 78.100
8  libavcodec     57.107.100 / 57.107.100
9  libavformat    57. 83.100 / 57. 83.100
10  libavdevice    57. 10.100 / 57. 10.100
11  libavfilter     6.107.100 /  6.107.100
12  libavresample   3.  7.  0 /  3.  7.  0
13  libswscale      4.  8.100 /  4.  8.100
14  libswresample   2.  9.100 /  2.  9.100
15  libpostproc    54.  7.100 / 54.  7.100
16[mpegts @ 0x55aa57791ea0] start time for stream 2 is not set in estimate_timings_from_pts
17[mpegts @ 0x55aa57791ea0] PES packet size mismatch
18[mpegts @ 0x55aa57791ea0] Could not find codec parameters for stream 2 (Audio: mp3 ([3][0][0][0] / 0x0003), 0 channels, s16p): unspecified frame size
19Consider increasing the value for the 'analyzeduration' and 'probesize' options
20Input #0, mpegts, from '3233_20180605163800.ts':
21  Duration: 00:23:58.91, start: 88378.639522, bitrate: 1328 kb/s
22  Program 1
23    Stream #0:0[0x65]: Video: mpeg2video (Main) ([2][0][0][0] / 0x0002), yuv420p(tv, top first), 544x576 [SAR 32:17 DAR 16:9], 25 fps, 25 tbr, 90k tbn, 50 tbc
24    Stream #0:1[0x66](eng): Audio: mp2 ([3][0][0][0] / 0x0003), 48000 Hz, stereo, s16p, 128 kb/s
25    Stream #0:2[0x68](eng): Audio: mp3 ([3][0][0][0] / 0x0003), 0 channels, s16p (visual impaired)
26    Stream #0:3[0x67](eng): Subtitle: dvb_subtitle ([6][0][0][0] / 0x0006)
27At least one output file must be specified
28
29
30
31mike@myth-server-1:/myth4/mythtv/recordings$ mythffmpeg -i 3233_20180605163800.ts
32ffmpeg version v30-Pre-650-g9dee6dd8e7 Copyright (c) 2000-2018 the FFmpeg developers
33  built with gcc 7 (Ubuntu 7.3.0-16ubuntu3)
34  configuration: --arch=x86 --sysinclude=/usr/include --cc='ccache gcc' --cxx='ccache g++' --ld=gcc --cpu=generic --target_os=linux --pkg_config=pkg-config --prefix=/usr/local --libdir=/usr/local/lib --as=gcc --objcc=gcc --dep_cc=gcc --host_cc=gcc --host_ld=gcc --disable-cross-compile --disable-libmp3lame --disable-libx264 --disable-libx265 --disable-libvpx --disable-libxvid --enable-vdpau --enable-vaapi --enable-libxml2 --enable-libass --disable-dxva2 --disable-mediacodec --disable-jni --disable-libbluray --disable-libfontconfig --disable-libfreetype --disable-libiec61883 --enable-crystalhd --disable-sdl2 --disable-ffplay --extra-cflags=' -w' --enable-stripping --strip='echo skipping strip' --disable-manpages --disable-podpages --disable-doc --disable-nvenc --enable-shared --disable-static --enable-gpl --enable-pic --disable-demuxer=mpegtsraw --disable-indev=dshow
35  libavutil      56. 14.100 / 56. 14.100
36  libavcodec     58. 18.100 / 58. 18.100
37  libavformat    58. 12.100 / 58. 12.100
38  libavdevice    58.  3.100 / 58.  3.100
39  libavfilter     7. 16.100 /  7. 16.100
40  libswscale      5.  1.100 /  5.  1.100
41  libswresample   3.  1.100 /  3.  1.100
42  libpostproc    55.  1.100 / 55.  1.100
43[mpegts @ 0x555dcf805fc0] start time for stream 2 is not set in estimate_timings_from_pts
44[mpegts @ 0x555dcf805fc0] PES packet size mismatch
45[mpegts @ 0x555dcf805fc0] Could not find codec parameters for stream 2 (Audio: mp3 (mp3float), 0 channels, fltp): unspecified frame size
46Consider increasing the value for the 'analyzeduration' and 'probesize' options
47Input #0, mpegts, from '3233_20180605163800.ts':
48  Duration: 00:23:58.91, start: 88378.639522, bitrate: 1328 kb/s
49    Stream #0:0[0x65]: Video: mpeg2video (Main), yuv420p(tv, top first), 544x576 [SAR 32:17 DAR 16:9], 25 fps, 25 tbr, 90k tbn, 50 tbc
50    Stream #0:1[0x66](eng): Audio: mp2, 48000 Hz, stereo, fltp, 128 kb/s
51    Stream #0:2[0x68](eng): Audio: mp3, 0 channels, fltp
52    Stream #0:3[0x67](eng): Subtitle: dvb_subtitle
53At least one output file must be specified
54
55mike@myth-server-1:/myth4/mythtv/recordings$ mediainfo 3233_20180605163800.ts
56General
57ID                                       : 20544 (0x5040)
58Complete name                            : 3233_20180605163800.ts
59Format                                   : MPEG-TS
60File size                                : 228 MiB
61Duration                                 : 23 min 58 s
62Overall bit rate mode                    : Variable
63Overall bit rate                         : 1 329 kb/s
64
65Video
66ID                                       : 101 (0x65)
67Menu ID                                  : 1 (0x1)
68Format                                   : MPEG Video
69Format version                           : Version 2
70Format profile                           : Main@Main
71Format settings                          : CustomMatrix / BVOP
72Format settings, BVOP                    : Yes
73Format settings, Matrix                  : Custom
74Format settings, GOP                     : Variable
75Format settings, picture structure       : Frame
76Codec ID                                 : 2
77Duration                                 : 23 min 58 s
78Bit rate mode                            : Variable
79Bit rate                                 : 1 134 kb/s
80Maximum bit rate                         : 15.0 Mb/s
81Width                                    : 544 pixels
82Height                                   : 576 pixels
83Display aspect ratio                     : 16:9
84Active Format Description                : Full frame 16:9 image
85Frame rate                               : 25.000 FPS
86Color space                              : YUV
87Chroma subsampling                       : 4:2:0
88Bit depth                                : 8 bits
89Scan type                                : Interlaced
90Scan order                               : Top Field First
91Compression mode                         : Lossy
92Bits/(Pixel*Frame)                       : 0.145
93Stream size                              : 194 MiB (85%)
94
95Audio
96ID                                       : 102 (0x66)
97Menu ID                                  : 1 (0x1)
98Format                                   : MPEG Audio
99Format version                           : Version 1
100Format profile                           : Layer 2
101Format settings                          : Joint stereo
102Codec ID                                 : 3
103Duration                                 : 23 min 58 s
104Bit rate mode                            : Constant
105Bit rate                                 : 128 kb/s
106Channel(s)                               : 2 channels
107Sampling rate                            : 48.0 kHz
108Frame rate                               : 41.667 FPS (1152 SPF)
109Compression mode                         : Lossy
110Delay relative to video                  : -752 ms
111Stream size                              : 21.9 MiB (10%)
112Language                                 : English
113
114Text
115ID                                       : 103 (0x67)
116Menu ID                                  : 1 (0x1)
117Format                                   : DVB Subtitle
118Codec ID                                 : 6
119Duration                                 : 23 min 54 s
120Delay relative to video                  : 1 s 40 ms
121Language                                 : English
122
123