Ticket #13580: mediainfo-first-file

File mediainfo-first-file, 5.5 KB (added by Jarno Suni, 8 weeks ago)

mediainfo output about the first file; see playback-log

Line 
1General
2ID                                       : 4865 (0x1301)
3Complete name                            : 10022_20200104175000.ts
4Format                                   : MPEG-TS
5File size                                : 8.01 GiB
6Duration                                 : 2 h 55 min
7Overall bit rate mode                    : Variable
8Overall bit rate                         : 6 555 kb/s
9
10Video
11ID                                       : 312 (0x138)
12Menu ID                                  : 1 (0x1)
13Format                                   : AVC
14Format/Info                              : Advanced Video Codec
15Format profile                           : High@L4
16Format settings                          : CABAC / 4 Ref Frames
17Format settings, CABAC                   : Yes
18Format settings, ReFrames                : 4 frames
19Codec ID                                 : 27
20Duration                                 : 2 h 55 min
21Bit rate                                 : 5 390 kb/s
22Maximum bit rate                         : 10.0 Mb/s
23Width                                    : 1 920 pixels
24Height                                   : 1 080 pixels
25Display aspect ratio                     : 16:9
26Frame rate                               : 25.000 FPS
27Standard                                 : Component
28Color space                              : YUV
29Chroma subsampling                       : 4:2:0
30Bit depth                                : 8 bits
31Scan type                                : MBAFF
32Scan type, store method                  : Interleaved fields
33Scan order                               : Top Field First
34Bits/(Pixel*Frame)                       : 0.104
35Stream size                              : 6.59 GiB (82%)
36Color range                              : Limited
37Color primaries                          : BT.709
38Transfer characteristics                 : BT.709
39Matrix coefficients                      : BT.709
40
41Audio #1
42ID                                       : 860 (0x35C)
43Menu ID                                  : 1 (0x1)
44Format                                   : AC-3
45Format/Info                              : Audio Coding 3
46Codec ID                                 : 129
47Duration                                 : 2 h 55 min
48Bit rate mode                            : Constant
49Bit rate                                 : 448 kb/s
50Maximum bit rate                         : 459 kb/s
51Channel(s)                               : 2 channels
52Channel positions                        : Front: L R
53Sampling rate                            : 48.0 kHz
54Frame rate                               : 31.250 FPS (1536 SPF)
55Bit depth                                : 16 bits
56Compression mode                         : Lossy
57Delay relative to video                  : -914 ms
58Stream size                              : 561 MiB (7%)
59Language                                 : Finnish
60Service kind                             : Complete Main
61
62Audio #2
63ID                                       : 861 (0x35D)
64Menu ID                                  : 1 (0x1)
65Format                                   : AC-3
66Format/Info                              : Audio Coding 3
67Codec ID                                 : 129
68Duration                                 : 31 s 520 ms
69Bit rate mode                            : Constant
70Bit rate                                 : 192 kb/s
71Maximum bit rate                         : 230 kb/s
72Channel(s)                               : 2 channels
73Channel positions                        : Front: L R
74Sampling rate                            : 48.0 kHz
75Frame rate                               : 31.250 FPS (1536 SPF)
76Bit depth                                : 16 bits
77Compression mode                         : Lossy
78Stream size                              : 739 KiB (0%)
79Language                                 : Swedish
80Service kind                             : Complete Main
81
82Audio #3
83ID                                       : 865 (0x361)
84Menu ID                                  : 1 (0x1)
85Format                                   : AC-3
86Format/Info                              : Audio Coding 3
87Codec ID                                 : 129
88Duration                                 : 2 h 55 min
89Bit rate mode                            : Constant
90Bit rate                                 : 192 kb/s
91Maximum bit rate                         : 230 kb/s
92Channel(s)                               : 2 channels
93Channel positions                        : Front: L R
94Sampling rate                            : 48.0 kHz
95Frame rate                               : 31.250 FPS (1536 SPF)
96Bit depth                                : 16 bits
97Compression mode                         : Lossy
98Delay relative to video                  : -846 ms
99Stream size                              : 240 MiB (3%)
100Language                                 : English
101Service kind                             : Complete Main
102
103Other
104ID                                       : 50 (0x32)-100
105Menu ID                                  : 1 (0x1)
106Format                                   : Teletext
107Language                                 : Finnish
108
109Menu
110ID                                       : 212 (0xD4)
111Menu ID                                  : 1 (0x1)
112Duration                                 : 2 h 55 min
113List                                     : 50 (0x32)-100 (Teletext, fi) / 312 (0x138) (AVC) / 860 (0x35C) (AC-3, Finnish) / 865 (0x361) (AC-3, English) / 6402 (0x1902) () / 861 (0x35D) (AC-3, Swedish)
114Language                                 : Finnish /  / Finnish / English /  / Swedish
115Maximum bit rate                         : 13402400