Ticket #2077: transcode-crash.txt

File transcode-crash.txt, 4.2 KB (added by seb, 15 years ago)
Line 
12006-07-19 12:20:58.164 JobQueue: Transcode Starting for The Catherine Tate Show: 1.2 GB (High Quality)
22006-07-19 12:21:00.374 Using runtime prefix = /usr/local
32006-07-19 12:21:00.807 New DB connection, total: 1
42006-07-19 12:21:00.835 Connected to database 'mythconverg' at host: localhost
52006-07-19 12:21:00.837 Enabled verbose msgs: important
62006-07-19 12:21:00.839 New DB connection, total: 2
72006-07-19 12:21:00.840 Connected to database 'mythconverg' at host: localhost
82006-07-19 12:21:00.842 Transcoding from /bigstuff/1002_20060710213000.mpg to /bigstuff/1002_20060710213000.mpg.tmp
92006-07-19 12:21:00.865 Connecting to backend server: 138.40.94.201:6543 (try 1 of 5)
102006-07-19 12:21:00.866 Using protocol version 30
112006-07-19 12:21:00.866 MainServer::HandleAnnounce Monitor
122006-07-19 12:21:00.866 adding: sebdell.soi.city.ac.uk as a client (events: 0)
132006-07-19 12:21:00.867 MainServer::HandleAnnounce Monitor
142006-07-19 12:21:00.867 adding: sebdell.soi.city.ac.uk as a client (events: 1)
15[mpegts @ 0x2c4150]Parser not found for Codec Id: 94212 !
16[mpegts @ 0x2c4150]Parser not found for Codec Id: 94212 !
170: start_time: 6304.381 duration: 199.422
181: start_time: 6304.350 duration: 199.428
192: start_time: 6304.350 duration: 199.486
203: start_time: 6304.400 duration: 199.436
214: start_time: 6304.350 duration: 199.486
225: start_time: 6304.350 duration: 199.486
236: start_time: 6304.350 duration: 199.486
247: start_time: 6304.350 duration: 199.486
258: start_time: 6304.350 duration: 199.486
269: start_time: 6304.350 duration: 199.486
27stream: start_time: 70048.331 duration: 2216.511 bitrate=4730 kb/s
282006-07-19 12:21:01.032 AFD: Opened codec 0x9eb3420, id(MPEG2VIDEO) type(Video)
292006-07-19 12:21:01.052 AFD: Opened codec 0x9eb3820, id(MP3) type(Audio)
302006-07-19 12:21:01.052 AFD: Opened codec 0x9eb3dd0, id(DVB_SUBTITLE) type(Subtitle)
312006-07-19 12:21:01.053 AFD: Opened codec 0x9eb43d0, id(MP3) type(Audio)
322006-07-19 12:21:01.105 Honoring the cutlist while transcoding
332006-07-19 12:21:01.106 Cutlist        : 0-1573,45424-55395
342006-07-19 12:21:01.106 Original Length: 55395 frames
352006-07-19 12:21:01.107 New Length     : 43851 frames
362006-07-19 12:21:01.134 Switching to MPEG-2 transcoder.
372006-07-19 12:21:01.153 Opening /bigstuff/1002_20060710213000.mpg
382006-07-19 12:21:01.154 Parser not found for Codec Id: 94212 !
392006-07-19 12:21:01.154 Parser not found for Codec Id: 94212 !
402006-07-19 12:21:01.159 Input #0, mpegts, from '/bigstuff/1002_20060710213000.mpg':
412006-07-19 12:21:01.159   Duration: N/A, bitrate: N/A
422006-07-19 12:21:01.159   Stream #0.0[0x262]: Video: mpeg2video, yuv420p, 720x576, 6500 kb/s, 25.00 fps(r)
432006-07-19 12:21:01.159   Stream #0.1[0x263](eng): Audio: mp2, 48000 Hz, stereo, 256 kb/s
442006-07-19 12:21:01.159   Stream #0.2[0x265](eng): Subtitle: dvbsub
452006-07-19 12:21:01.160   Stream #0.3[0x264](eng): Audio: mp2, 48000 Hz, mono, 64 kb/s
462006-07-19 12:21:01.160   Stream #0.4[0x28a]: Data: 0x0000
472006-07-19 12:21:01.160   Stream #0.5[0x28b]: Data: 0x0000
482006-07-19 12:21:01.160   Stream #0.6[0x28c]: Data: 0x0000
492006-07-19 12:21:01.161   Stream #0.7[0x3f0]: Data: 0x0000
502006-07-19 12:21:01.161   Stream #0.8[0x3f1]: Data: 0x0000
512006-07-19 12:21:01.161   Stream #0.9[0x3f2]: Data: 0x0000
522006-07-19 12:21:01.161 Skipping unsupported codec 3 on stream 2
532006-07-19 12:21:01.162 Skipping unsupported codec 2 on stream 4
542006-07-19 12:21:01.162 Skipping unsupported codec 2 on stream 5
552006-07-19 12:21:01.162 Skipping unsupported codec 2 on stream 6
562006-07-19 12:21:01.162 Skipping unsupported codec 2 on stream 7
572006-07-19 12:21:01.162 Skipping unsupported codec 2 on stream 8
582006-07-19 12:21:01.162 Skipping unsupported codec 2 on stream 9
592006-07-19 12:21:01.165 Parser not found for Codec Id: 94212 !
602006-07-19 12:21:01.166 Parser not found for Codec Id: 94212 !
612006-07-19 12:21:01.167 #0 PTS:19:27:28.680 Delta: 0.0ms queue: 11
622006-07-19 12:21:01.167 #1 PTS:19:27:28.666 Delta: 14.2333ms queue: 2
632006-07-19 12:21:01.167 #3 PTS:19:27:28.889 Delta: -208.644ms queue: 20
642006-07-19 12:21:01.924 Converting frame #0 from B to I
652006-07-19 12:21:01.944 Converting frame #1 from B to I
662006-07-19 12:21:01.985 Deadlock detected.  One buffer is full when
67                the other is empty!  Aborting
68
69