Ticket #4769: mythfrontend.log

File mythfrontend.log, 12.2 KB (added by harlock@…, 13 years ago)

frontend log 0.21.20080213-1 www.mythtv.org

Line 
12008-02-24 18:27:18.186 New DB connection, total: 2
22008-02-24 18:27:18.186 Connected to database 'mythconverg' at host: localhost
32008-02-24 18:27:18.188 mythfrontend version: 0.21.20080213-1 www.mythtv.org
42008-02-24 18:27:18.189 Enabled verbose msgs:  important general osd record channel siparser media libav
5DisplaResX: Unable to XRRgetScreenInfo
6DisplaResX: Unable to XRRgetScreenInfo
72008-02-24 18:27:18.928 Total desktop dim: 1920x1080, with 1 screen[s].
82008-02-24 18:27:18.930 Using screen 0, 1920x1080 at 0,0
92008-02-24 18:27:18.933 Switching to square mode (G.A.N.T)
102008-02-24 18:27:18.953 Using the Qt painter
112008-02-24 18:27:18.960 lirc init success using configuration file: /root/.mythtv/lircrc
122008-02-24 18:27:21.293 Loading from: /usr/local/share/mythtv/themes/G.A.N.T/base.xml
132008-02-24 18:27:21.429 Loading from: /usr/local/share/mythtv/themes/default/base.xml
142008-02-24 18:27:21.492 Registering Internal as a media playback plugin.
152008-02-24 18:27:21.735 Registering MythGallery Media Handler 1/2 as a media handler for MEDIATYPE_DATA
162008-02-24 18:27:21.737 Creating MediaMonitor, SendEvents=false
172008-02-24 18:27:21.737 IgnoreDevices=
182008-02-24 18:27:21.738 MediaMonitorUnix::AddDevice() - Added /dev/cdrom
192008-02-24 18:27:21.739 MediaMonitorUnix::AddDevice() - not adding /dev/hdb
20                        because it appears to be a duplicate of /dev/cdrom
212008-02-24 18:27:21.739 MythCDROMLinux::testMedia - Failed to get drive status of /dev/fd0
22                        eno: Invalid argument (22)
232008-02-24 18:27:21.741 MediaMonitorUnix::GetCDROMBlockDevices() returning sr0, hdb
242008-02-24 18:27:21.747 MediaMonitorUnix::AddDevice() - not adding /dev/hdb
25                        because it appears to be a duplicate of /dev/cdrom
262008-02-24 18:27:21.750 MediaMonitorUnix::GetCDROMBlockDevices() returning sr0, hdb
272008-02-24 18:27:21.756 MediaMonitorUnix::AddDevice() - Added /dev/sr0
282008-02-24 18:27:21.756 Initial device list...
29/dev/cdrom->/dev/hdb (TSSTcorpCD/DVDW TS-H552B), /dev/sr0 (LITE-ON  DVDRW SHW-160P6S )
302008-02-24 18:27:21.756 Registering MythGallery Media Handler 2/2 as a media handler for MEDIATYPE_MGALLERY, ext(gif,jpg,png)
312008-02-24 18:27:21.756 MonitorRegisterExtensions(0x100, gif,jpg,png)
322008-02-24 18:27:22.181 MythMusic adding CD-Writer: 2,0,0 -- WDC WD2500KS-00M
332008-02-24 18:27:22.181 MythMusic adding CD-Writer: 3,0,0 -- ST3320620AS     
342008-02-24 18:27:22.181 MythMusic adding CD-Writer: 4,0,0 -- ST3320620AS     
352008-02-24 18:27:22.181 MythMusic adding CD-Writer: 6,0,0 -- DVDRW SHW-160P6S
362008-02-24 18:27:23.708 Failed to run 'cdrecord --scanbus -dev=ATAPI'
372008-02-24 18:27:23.744 Registering MythMusic Media Handler 1/2 as a media handler for MEDIATYPE_MIXED
382008-02-24 18:27:23.744 Registering MythMusic Media Handler 2/2 as a media handler for MEDIATYPE_MMUSIC, ext(ogg,mp3,aac,flac)
392008-02-24 18:27:23.744 MonitorRegisterExtensions(0x40, ogg,mp3,aac,flac)
40SIP listening on IP Address 64.130.96.72:5060 NAT address 64.130.96.72
412008-02-24 18:27:24.193 Registering MythDVD DVD Media Handler as a media handler for MEDIATYPE_DVD
422008-02-24 18:27:24.194 Registering MythDVD VCD Media Handler as a media handler for MEDIATYPE_VCD
432008-02-24 18:27:24.263 SourceManager: NeedSourceFor: Unable to find source for 2, +31.18,-086.23, 1
44QIntDict: Cannot insert null item
452008-02-24 18:27:24.263 SourceManager: NeedSourceFor: Unable to find source for 2, +31.18,-086.23, 1
46QIntDict: Cannot insert null item
472008-02-24 18:27:24.263 SourceManager: NeedSourceFor: Unable to find source for 1, http://image.weather.com/web/radar/us_se_9regradar_plus_usen.jpg, 1
48QIntDict: Cannot insert null item
492008-02-24 18:27:24.264 SourceManager: NeedSourceFor: Unable to find source for 4, 01039, 1
50QIntDict: Cannot insert null item
512008-02-24 18:27:24.264 SourceManager: NeedSourceFor: Unable to find source for 3, +31.18,-086.23, 1
52QIntDict: Cannot insert null item
532008-02-24 18:27:24.320 Starting MediaMonitor
542008-02-24 18:27:24.328 /dev/cdrom Disk OK, type = MEDIATYPE_UNKNOWN
552008-02-24 18:27:24.328 /dev/cdrom Current status MEDIASTAT_UNKNOWN
562008-02-24 18:27:24.328 NetworkControl: Listening for remote connections on port 6546
572008-02-24 18:27:24.328 Found a data disk
582008-02-24 18:27:24.331 Probable DVD detected.
592008-02-24 18:27:24.332 Media status changed, but not sending event (MEDIATYPE_DVD, MEDIASTAT_NOTMOUNTED -> MEDIASTAT_MOUNTED)
602008-02-24 18:27:24.443 /dev/sr0 Tray open or no disc
612008-02-24 18:27:24.444 MythMediaDevice::isMounted() - mount of '/dev/sr0' not found.
62                 Device name/type | Current mountpoint
63                 -----------------+-------------------
64                        /dev/root | /
65                   /dev/dvr/store | /dvr/store
66                         /dev/hdb | /mnt/cdrom
67                 =================+===================
682008-02-24 18:27:24.947 /dev/cdrom Disk OK, type = MEDIATYPE_DVD
692008-02-24 18:27:25.103 /dev/sr0 Tray open or no disc
702008-02-24 18:27:25.606 /dev/cdrom Disk OK, type = MEDIATYPE_DVD
712008-02-24 18:27:25.714 /dev/sr0 Tray open or no disc
722008-02-24 18:27:26.217 /dev/cdrom Disk OK, type = MEDIATYPE_DVD
732008-02-24 18:27:26.324 /dev/sr0 Tray open or no disc
742008-02-24 18:27:26.827 /dev/cdrom Disk OK, type = MEDIATYPE_DVD
752008-02-24 18:27:26.934 /dev/sr0 Tray open or no disc
762008-02-24 18:27:27.437 /dev/cdrom Disk OK, type = MEDIATYPE_DVD
772008-02-24 18:27:27.543 /dev/sr0 Tray open or no disc
782008-02-24 18:27:28.046 /dev/cdrom Disk OK, type = MEDIATYPE_DVD
792008-02-24 18:27:28.153 /dev/sr0 Tray open or no disc
802008-02-24 18:27:28.656 /dev/cdrom Disk OK, type = MEDIATYPE_DVD
812008-02-24 18:27:28.762 /dev/sr0 Tray open or no disc
822008-02-24 18:27:29.265 /dev/cdrom Disk OK, type = MEDIATYPE_DVD
832008-02-24 18:27:29.372 /dev/sr0 Tray open or no disc
842008-02-24 18:27:29.875 /dev/cdrom Disk OK, type = MEDIATYPE_DVD
852008-02-24 18:27:29.982 /dev/sr0 Tray open or no disc
862008-02-24 18:27:30.485 /dev/cdrom Disk OK, type = MEDIATYPE_DVD
872008-02-24 18:27:30.591 /dev/sr0 Tray open or no disc
882008-02-24 18:27:31.094 /dev/cdrom Disk OK, type = MEDIATYPE_DVD
892008-02-24 18:27:31.201 /dev/sr0 Tray open or no disc
902008-02-24 18:27:31.704 /dev/cdrom Disk OK, type = MEDIATYPE_DVD
912008-02-24 18:27:31.810 /dev/sr0 Tray open or no disc
922008-02-24 18:27:32.313 /dev/cdrom Disk OK, type = MEDIATYPE_DVD
932008-02-24 18:27:32.420 /dev/sr0 Tray open or no disc
942008-02-24 18:27:32.617 XMLParse::LoadTheme using /usr/local/share/mythtv/themes/G.A.N.T/ui.xml
952008-02-24 18:27:32.858 Connecting to backend server: 64.130.96.72:6543 (try 1 of 5)
962008-02-24 18:27:32.859 Using protocol version 40
972008-02-24 18:27:32.923 /dev/cdrom Disk OK, type = MEDIATYPE_DVD
982008-02-24 18:27:33.077 /dev/sr0 Tray open or no disc
992008-02-24 18:27:33.242 Connecting to backend server: 64.130.96.72:6543 (try 1 of 5)
1002008-02-24 18:27:33.244 Using protocol version 40
1012008-02-24 18:27:33.247 Error: File 'myth://64.130.96.72:6543/8002_20080206210647.mpg' missing.
1022008-02-24 18:27:33.264 Preview Error: Remote Preview failed, reason given: ERROR_UNKNOWN
1032008-02-24 18:27:33.580 /dev/cdrom Disk OK, type = MEDIATYPE_DVD
1042008-02-24 18:27:33.598 Error: File 'myth://64.130.96.72:6543/8002_20080206210647.mpg' missing.
1052008-02-24 18:27:33.687 /dev/sr0 Tray open or no disc
1062008-02-24 18:27:33.978 Connecting to backend server: 64.130.96.72:6543 (try 1 of 5)
1072008-02-24 18:27:33.979 Using protocol version 40
1082008-02-24 18:27:33.982 Error: File 'myth://64.130.96.72:6543/8002_20080206202826.mpg' missing.
1092008-02-24 18:27:34.005 Preview Error: Remote Preview failed, reason given: ERROR_UNKNOWN
1102008-02-24 18:27:34.096 Error: File 'myth://64.130.96.72:6543/8002_20080206202826.mpg' missing.
1112008-02-24 18:27:34.190 /dev/cdrom Disk OK, type = MEDIATYPE_DVD
1122008-02-24 18:27:34.296 /dev/sr0 Tray open or no disc
1132008-02-24 18:27:34.799 /dev/cdrom Disk OK, type = MEDIATYPE_DVD
1142008-02-24 18:27:34.906 /dev/sr0 Tray open or no disc
1152008-02-24 18:27:35.409 /dev/cdrom Disk OK, type = MEDIATYPE_DVD
1162008-02-24 18:27:35.516 /dev/sr0 Tray open or no disc
1172008-02-24 18:27:35.538 AFD: Opened codec 0x82d5250, id(MPEG2VIDEO) type(Video)
1182008-02-24 18:27:35.538 AFD: codec MP2 has 2 channels
1192008-02-24 18:27:35.538 AFD: Opened codec 0x82d5630, id(MP2) type(Audio)
1202008-02-24 18:27:35.539 Input #0, mpeg, from '/dvr/store/8039_20080206020000.mpg':
1212008-02-24 18:27:35.539   Duration: 08:31:31.4, start: 0.189289, bitrate: 1220 kb/s
1222008-02-24 18:27:35.539     Stream #0.0[0x1e0], 1/90000: Video: mpeg2video, yuv420p, 720x480 [PAR 8:9 DAR 4:3], 1001/30000, 6000 kb/s, 29.97 tb(r)
1232008-02-24 18:27:35.539     Stream #0.1[0x69], 1/90000: Data: 0x0000
1242008-02-24 18:27:35.539     Stream #0.2[0x1c0], 1/90000: Audio: mp2, 48000 Hz, stereo, 384 kb/s
1252008-02-24 18:27:36.019 /dev/cdrom Disk OK, type = MEDIATYPE_DVD
1262008-02-24 18:27:36.129 /dev/sr0 Tray open or no disc
1272008-02-24 18:27:36.632 /dev/cdrom Disk OK, type = MEDIATYPE_DVD
1282008-02-24 18:27:36.739 /dev/sr0 Tray open or no disc
1292008-02-24 18:27:37.242 /dev/cdrom Disk OK, type = MEDIATYPE_DVD
1302008-02-24 18:27:37.348 /dev/sr0 Tray open or no disc
1312008-02-24 18:27:37.851 /dev/cdrom Disk OK, type = MEDIATYPE_DVD
1322008-02-24 18:27:37.958 /dev/sr0 Tray open or no disc
1332008-02-24 18:27:38.461 /dev/cdrom Disk OK, type = MEDIATYPE_DVD
1342008-02-24 18:27:38.504 AFD: Opened codec 0x82e0460, id(MPEG2VIDEO) type(Video)
1352008-02-24 18:27:38.504 AFD: codec MP2 has 2 channels
1362008-02-24 18:27:38.504 AFD: Opened codec 0x82ddef0, id(MP2) type(Audio)
1372008-02-24 18:27:38.504 Input #0, mpeg, from '/dvr/store/8039_20080206020000.mpg':
1382008-02-24 18:27:38.504   Duration: 08:31:31.4, start: 0.189289, bitrate: 1220 kb/s
1392008-02-24 18:27:38.504     Stream #0.0[0x1e0], 1/90000: Video: mpeg2video, yuv420p, 720x480 [PAR 8:9 DAR 4:3], 1001/30000, 6000 kb/s, 29.97 tb(r)
1402008-02-24 18:27:38.504     Stream #0.1[0x69], 1/90000: Data: 0x0000
1412008-02-24 18:27:38.504     Stream #0.2[0x1c0], 1/90000: Audio: mp2, 48000 Hz, stereo, 384 kb/s
1422008-02-24 18:27:38.569 /dev/sr0 Tray open or no disc
1432008-02-24 18:27:39.073 /dev/cdrom Disk OK, type = MEDIATYPE_DVD
1442008-02-24 18:27:39.117 [mpeg2video @ 0xb726f188]invalid cbp at 42 18
1452008-02-24 18:27:39.118 [mpeg2video @ 0xb726f188]invalid cbp at 34 16
1462008-02-24 18:27:39.118 [mpeg2video @ 0xb726f188]Warning MVs not available
1472008-02-24 18:27:39.118 [mpeg2video @ 0xb726f188]concealing 585 DC, 585 AC, 585 MV errors
1482008-02-24 18:27:39.148 TV: Attempting to change from None to WatchingPreRecorded
1492008-02-24 18:27:39.209 /dev/sr0 Tray open or no disc
1502008-02-24 18:27:39.579 AFD: Opened codec 0x82e0460, id(MPEG2VIDEO) type(Video)
1512008-02-24 18:27:39.579 AFD: codec MP2 has 2 channels
1522008-02-24 18:27:39.579 AFD: Opened codec 0x94a1010, id(MP2) type(Audio)
1532008-02-24 18:27:39.583 Opening audio device ''. ch 6(2) sr 48000
1542008-02-24 18:27:39.583 Opening ARTS audio device ''.
1552008-02-24 18:27:39.712 /dev/cdrom Disk OK, type = MEDIATYPE_DVD
156SIP Registration failed; no Response from Server. Are you behind a firewall?
1572008-02-24 18:27:39.819 /dev/sr0 Tray open or no disc
1582008-02-24 18:27:40.157 AFD: Opened codec 0x86d9cc0, id(MPEG2VIDEO) type(Video)
1592008-02-24 18:27:40.157 AFD: codec MP2 has 2 channels
1602008-02-24 18:27:40.157 AFD: Opened codec 0x86da130, id(MP2) type(Audio)
1612008-02-24 18:27:40.157 Input #0, mpeg, from '/dvr/store/8039_20080206020000.mpg':
1622008-02-24 18:27:40.157   Duration: 08:31:31.4, start: 0.189289, bitrate: 1220 kb/s
1632008-02-24 18:27:40.157     Stream #0.0[0x1e0], 1/90000: Video: mpeg2video, yuv420p, 720x480 [PAR 8:9 DAR 4:3], 1001/30000, 6000 kb/s, 29.97 tb(r)
1642008-02-24 18:27:40.157     Stream #0.1[0x69], 1/90000: Data: 0x0000
1652008-02-24 18:27:40.157     Stream #0.2[0x1c0], 1/90000: Audio: mp2, 48000 Hz, stereo, 384 kb/s
1662008-02-24 18:27:40.322 /dev/cdrom Disk OK, type = MEDIATYPE_DVD
1672008-02-24 18:27:40.427 Input #0, mpeg, from '/dvr/store/8039_20080206020000.mpg':
1682008-02-24 18:27:40.428   Duration: 08:31:31.4, start: 0.189289, bitrate: 1220 kb/s
1692008-02-24 18:27:40.428     Stream #0.0[0x1e0], 1/90000: Video: mpeg2video, yuv420p, 720x480 [PAR 8:9 DAR 4:3], 1001/30000, 6000 kb/s, 29.97 tb(r)
1702008-02-24 18:27:40.428     Stream #0.1[0x69], 1/90000: Data: 0x0000
1712008-02-24 18:27:40.428     Stream #0.2[0x1c0], 1/90000: Audio: mp2, 48000 Hz, stereo, 384 kb/s
1722008-02-24 18:27:40.430 /dev/sr0 Tray open or no disc
1732008-02-24 18:27:40.452 VideoOutputXv: XVideo Adaptor Name: 'NV17 Video Texture'
1742008-02-24 18:27:40.497 OSD Theme Dimensions W: 640 H: 480