Ticket #5963: transcode_and_indexing_problem.txt

File transcode_and_indexing_problem.txt, 9.0 KB (added by nico@…, 11 years ago)

mythbackend log file

Line 
12008-12-01 09:30:00.760 Finished recording Frasier "Roz's Turn": channel 1004
22008-12-01 09:30:01.090 Scheduled 143 items in 0.4 = 0.00 match + 0.44 place
32008-12-01 09:30:02.070 Using runtime prefix = /usr
42008-12-01 09:30:02.190 Empty LocalHostName.
52008-12-01 09:30:02.202 Using localhost value of favia
62008-12-01 09:30:02.288 New DB connection, total: 1
72008-12-01 09:30:02.304 Connected to database 'mythconverg' at host: localhost
82008-12-01 09:30:02.312 Closing DB connection named 'DBManager0'
92008-12-01 09:30:02.313 Connected to database 'mythconverg' at host: localhost
102008-12-01 09:30:02.339 New DB connection, total: 2
112008-12-01 09:30:02.378 Connected to database 'mythconverg' at host: localhost
122008-12-01 09:30:02.381 Current Schema Version: 1214
132008-12-01 09:30:02.713 MainServer::HandleAnnounce Monitor
142008-12-01 09:30:02.715 adding: favia as a client (events: 0)
152008-12-01 09:30:04.988 AFD: Opened codec 0x240c6c0, id(MPEG2VIDEO) type(Video)
162008-12-01 09:30:04.991 AFD: codec MP3 has 2 channels
172008-12-01 09:30:04.992 AFD: Opened codec 0x2427490, id(MP3) type(Audio)
182008-12-01 09:30:05.007 AFD: codec MP3 has 1 channels
192008-12-01 09:30:05.008 AFD: Opened codec 0x2427870, id(MP3) type(Audio)
202008-12-01 09:30:05.015 AFD: Opened codec 0x2427c50, id(DVB_SUBTITLE) type(Subtitle)
212008-12-01 09:30:05.434 Preview: Grabbed preview '/var/lib/mythtv/recordings/1004_20081201085500.mpg' 704x576@175s
222008-12-01 09:30:41.396 JobQueue: Transcode Starting for Frasier "Roz's Turn": Autodetect (1.0 GB)
232008-12-01 09:30:41.492 Using runtime prefix = /usr
242008-12-01 09:30:41.495 Empty LocalHostName.
252008-12-01 09:30:41.496 Using localhost value of favia
262008-12-01 09:30:41.500 New DB connection, total: 1
272008-12-01 09:30:41.520 Connected to database 'mythconverg' at host: localhost
282008-12-01 09:30:41.521 Closing DB connection named 'DBManager0'
292008-12-01 09:30:41.530 Connected to database 'mythconverg' at host: localhost
302008-12-01 09:30:41.535 Enabled verbose msgs: important
312008-12-01 09:30:41.544 New DB connection, total: 2
322008-12-01 09:30:41.562 Connected to database 'mythconverg' at host: localhost
332008-12-01 09:30:41.564 Transcoding from /var/lib/mythtv/recordings/1004_20081201085500.mpg to /var/lib/mythtv/recordings/1004_20081201085500.mpg.tmp
342008-12-01 09:30:41.579 Connecting to backend server: 192.168.1.40:6543 (try 1 of 5)
352008-12-01 09:30:41.580 Using protocol version 40
362008-12-01 09:30:41.587 MainServer::HandleAnnounce Monitor
372008-12-01 09:30:41.606 adding: favia as a client (events: 0)
382008-12-01 09:30:41.607 MainServer::HandleAnnounce Monitor
392008-12-01 09:30:41.618 adding: favia as a client (events: 1)
402008-12-01 09:30:44.060 AFD: Opened codec 0x7f57f40131b0, id(MPEG2VIDEO) type(Video)
412008-12-01 09:30:44.063 AFD: codec MP3 has 2 channels
422008-12-01 09:30:44.080 AFD: Opened codec 0x7f57f4013830, id(MP3) type(Audio)
432008-12-01 09:30:44.081 AFD: codec MP3 has 1 channels
442008-12-01 09:30:44.092 AFD: Opened codec 0x7f57f402e3a0, id(MP3) type(Audio)
452008-12-01 09:30:44.099 AFD: Opened codec 0x7f57f402e780, id(DVB_SUBTITLE) type(Subtitle)
462008-12-01 09:30:44.119 Transcode: Looking for autodetect profile: Autodetect from 576i
472008-12-01 09:30:44.125 New DB connection, total: 3
482008-12-01 09:30:44.126 Connected to database 'mythconverg' at host: localhost
492008-12-01 09:30:44.161 SampleRate: Attempted to add a rate 32000 Hz, which is not in the list of allowed rates.
502008-12-01 09:30:44.163 Transcode: Using autodetect profile: MPEG2
512008-12-01 09:30:44.163 Switching to MPEG-2 transcoder.
522008-12-01 09:30:44.202 Opening /var/lib/mythtv/recordings/1004_20081201085500.mpg
532008-12-01 09:30:44.260 Input #0, mpegts, from '/var/lib/mythtv/recordings/1004_20081201085500.mpg':
542008-12-01 09:30:44.260   Duration: 00:34:56.3, start: 86191.486178, bitrate: 4094 kb/s
552008-12-01 09:30:44.261     Stream #0.0[0xb02]: Video: mpeg2video, yuv420p, 704x576 [PAR 16:11 DAR 16:9], 10000 kb/s, 25.00 tb(r)
562008-12-01 09:30:44.261     Stream #0.1[0xb03](eng): Audio: mp2, 48000 Hz, stereo, 192 kb/s
572008-12-01 09:30:44.267     Stream #0.2[0xb05](eng): Audio: mp2, 48000 Hz, mono, 64 kb/s
582008-12-01 09:30:44.291     Stream #0.3[0xb04](eng): Subtitle: dvbsub
592008-12-01 09:30:44.303     Stream #0.4[0x816]: Data: 0x0000
602008-12-01 09:30:44.303     Stream #0.5[0x8df]: Data: 0x0000
612008-12-01 09:30:44.311     Stream #0.6[0x8e0]: Data: 0x0000
622008-12-01 09:30:44.319     Stream #0.7[0x8e1]: Data: 0x0000
632008-12-01 09:30:44.336 Skipping unsupported codec 3 on stream 3
642008-12-01 09:30:44.336 Skipping unsupported codec 2 on stream 4
652008-12-01 09:30:44.347 Skipping unsupported codec 2 on stream 5
662008-12-01 09:30:44.355 Skipping unsupported codec 2 on stream 6
672008-12-01 09:30:44.363 Skipping unsupported codec 2 on stream 7
682008-12-01 09:30:44.382 #0 PTS:23:56:31.954 Delta: 0.0ms queue: 20
692008-12-01 09:30:44.383 #1 PTS:23:56:31.942 Delta: 12.6778ms queue: 2
702008-12-01 09:30:44.392 #2 PTS:23:56:31.890 Delta: 64.4556ms queue: 5
71Mux rate: 10.42 Mbit/s
722008-12-01 09:30:45.618 Warning: partial frame found!
732008-12-01 09:30:54.435 Warning: partial frame found!
742008-12-01 09:30:58.116 Warning: partial frame found!
752008-12-01 09:31:09.455 Warning: partial frame found!
762008-12-01 09:31:15.198 Generating Keyframe Index
772008-12-01 09:31:15.222 Opening /var/lib/mythtv/recordings/1004_20081201085500.mpg.tmp
782008-12-01 09:31:15.247 Input #0, mpeg, from '/var/lib/mythtv/recordings/1004_20081201085500.mpg.tmp':
792008-12-01 09:31:15.248   Duration: 00:34:55.9, start: 0.360000, bitrate: 2868 kb/s
802008-12-01 09:31:15.249     Stream #0.0[0x1e0]: Video: mpeg2video, yuv420p, 704x576 [PAR 16:11 DAR 16:9], 10000 kb/s, 25.00 tb(r)
812008-12-01 09:31:15.255     Stream #0.1[0x1c1]: Audio: mp2, 48000 Hz, mono, 64 kb/s
822008-12-01 09:31:15.263     Stream #0.2[0x1c0]: Audio: mp2, 48000 Hz, stereo, 192 kb/s
832008-12-01 09:31:26.470 Transcode Completed
842008-12-01 09:31:27.685 Transcoding /var/lib/mythtv/recordings/1004_20081201085500.mpg done
852008-12-01 09:31:28.258 JobQueue: Transcode Finished: Frasier "Roz's Turn": Autodetect (716.8 MB)
862008-12-01 09:31:46.468 JobQueue: Commercial Flagging Starting for Frasier "Roz's Turn" recorded from channel 1004 at Mon Dec 1 08:55:00 2008
872008-12-01 09:31:47.639 Using runtime prefix = /usr
882008-12-01 09:31:47.651 Empty LocalHostName.
892008-12-01 09:31:47.652 Using localhost value of favia
902008-12-01 09:31:47.760 New DB connection, total: 1
912008-12-01 09:31:47.769 Connected to database 'mythconverg' at host: localhost
922008-12-01 09:31:47.770 Closing DB connection named 'DBManager0'
932008-12-01 09:31:47.771 Connected to database 'mythconverg' at host: localhost
942008-12-01 09:31:47.780 New DB connection, total: 2
952008-12-01 09:31:47.788 Connected to database 'mythconverg' at host: localhost
962008-12-01 09:31:47.844 Connecting to backend server: 192.168.1.40:6543 (try 1 of 5)
972008-12-01 09:31:47.845 Using protocol version 40
982008-12-01 09:31:47.846 MainServer::HandleAnnounce Monitor
992008-12-01 09:31:47.872 adding: favia as a client (events: 0)
1002008-12-01 09:31:47.884 MainServer::HandleAnnounce Monitor
1012008-12-01 09:31:47.885 adding: favia as a client (events: 1)
1022008-12-01 09:31:50.372 AFD: Opened codec 0x7f0b1c00e820, id(MPEG2VIDEO) type(Video)
1032008-12-01 09:31:50.375 AFD: codec MP2 has 1 channels
1042008-12-01 09:31:50.413 AFD: Opened codec 0x7f0b1c00ed00, id(MP2) type(Audio)
1052008-12-01 09:31:50.413 AFD: codec MP2 has 2 channels
1062008-12-01 09:31:50.436 AFD: Opened codec 0x7f0b1c0b2c80, id(MP2) type(Audio)
1072008-12-01 09:33:07.614 Reschedule requested for id -1.
1082008-12-01 09:33:08.704 Scheduled 143 items in 1.1 = 0.49 match + 0.60 place
1092008-12-01 09:35:46.299 Reschedule requested for id -1.
1102008-12-01 09:35:47.062 Scheduled 143 items in 0.8 = 0.27 match + 0.49 place
1112008-12-01 09:40:03.395 MainServer::HandleAnnounce Monitor
1122008-12-01 09:40:03.408 adding: favia as a client (events: 0)
1132008-12-01 09:41:07.924 Reschedule requested for id -1.
1142008-12-01 09:41:08.843 Scheduled 143 items in 0.9 = 0.35 match + 0.56 place
1152008-12-01 09:42:16.480 [mpeg2video @ 0x7f0b2d205e90]ac-tex damaged at 19 0
1162008-12-01 09:42:16.484 [mpeg2video @ 0x7f0b2d205e90]Warning MVs not available
1172008-12-01 09:42:16.902 Using runtime prefix = /usr
1182008-12-01 09:42:16.914 Empty LocalHostName.
1192008-12-01 09:42:16.915 Using localhost value of favia
1202008-12-01 09:42:16.946 New DB connection, total: 1
1212008-12-01 09:42:16.949 Connected to database 'mythconverg' at host: localhost
1222008-12-01 09:42:16.955 Closing DB connection named 'DBManager0'
1232008-12-01 09:42:16.968 Connected to database 'mythconverg' at host: localhost
1242008-12-01 09:42:16.969 New DB connection, total: 2
1252008-12-01 09:42:16.980 Connected to database 'mythconverg' at host: localhost
1262008-12-01 09:42:16.987 Current Schema Version: 1214
1272008-12-01 09:42:19.505 AFD: Opened codec 0x234e300, id(MPEG2VIDEO) type(Video)
1282008-12-01 09:42:19.506 AFD: codec MP2 has 1 channels
1292008-12-01 09:42:19.506 AFD: Opened codec 0x234e7e0, id(MP2) type(Audio)
1302008-12-01 09:42:19.531 AFD: codec MP2 has 2 channels
1312008-12-01 09:42:19.531 AFD: Opened codec 0x23f2660, id(MP2) type(Audio)
1322008-12-01 09:42:19.636 Preview: Grabbed preview '/var/lib/mythtv/recordings/1004_20081201085500.mpg' 704x576@175s
133