Ticket #6236: mythburn_patch6236.log

File mythburn_patch6236.log, 3.9 KB (added by wavebits@…, 11 years ago)
Line 
1Using simple_fix_rtl
2mythburn.py (0.1.20080726-1-fixes) starting up...
3script path:/usr/share/mythtv/mytharchive/scripts
4myth share path:/usr/share/mythtv
5passed job file: /var/lib/mytharchive/temp/config/mydata.xml
6passed progress log file: /var/lib/mytharchive/temp/logs/progress.log
7mythburn.py (0.1.20080726-1-fixes) starting up...
8Found 2 CPUs
9Obtaining MythTV settings from MySQL database for hostname mythtv60
10temppath: /var/lib/mytharchive/temp/work
11logpath:  /var/lib/mytharchive/temp/logs
12Setting process priority to 17
13Processing Mythburn job number 1.
14Options - mediatype = 0, doburn = 1, createiso = 0, erasedvdrw = 0
15          savefilename = ''
16Looking for: /usr/share/mythtv/mytharchive/themes/MythCenter - Autoplay/theme.xml
17Loading font 0, /usr/share/mythtv/FreeSans.ttf size 19
18Loading font 1, /usr/share/mythtv/FreeSans.ttf size 15
19Loading font 2, /usr/share/mythtv/FreeSans.ttf size 13
20wantIntro: 1, wantMainMenu: 0, wantChapterMenu:0, wantDetailsPage: 1
21Final DVD Video format will be ntsc
22There are 1 files to process
23Pre-processing recording 1: '/var/lib/mythtv/recordings2/1151_20090325200000.mpg'
242009-03-31 13:21:37.936 Opening /var/lib/mythtv/recordings2/1151_20090325200000.mpg
25Input #0, mpegts, from '/var/lib/mythtv/recordings2/1151_20090325200000.mpg':
26  Duration: 01:01:57.3, start: 20561.931622, bitrate: 14439 kb/s
27    Stream #0.0[0x31]: Video: mpeg2video, yuv420p, 1280x720 [PAR 1:1 DAR 16:9], 45000 kb/s, 59.94 tb(r)
28    Stream #0.1[0x34]: Audio: ac3, 48000 Hz, 5:1, 384 kb/s
292009-03-31 13:21:37.948 duration = 3717
302009-03-31 13:21:37.948 Extracting details from: 1151_20090325200000.mpg
312009-03-31 13:21:37.949 chanid: 1151 starttime:2009-03-25T20:00:00
322009-03-31 13:21:37.951 File is a Myth recording.
332009-03-31 13:21:37.952 cutframes = 74707
342009-03-31 13:21:37.952 cutduration = 1246
35streaminfo.xml :-
36<?xml version="1.0" ?><!DOCTYPE FILEINFO><file cutduration="2471" duration="3717" filename="/var/lib/mythtv/recordings2/1151_20090325200000.mpg" type="mpegts">   
37        <streams count="2">       
38                <video aspectratio="1.77778" bitrate="45000000" codec="mpeg2video" ffmpegindex="0" fps="59.9401" height="720" id="49" start_time="1850.612704" streamindex="0" width="1280"/>       
39                <audio bitrate="384000" channels="6" codec="ac3" ffmpegindex="1" id="52" language="N/A" samplerate="48000" start_time="1850.573846" streamindex="1"/>       
40        </streams>   
41</file>
42          Lost
43Video resolution is 1280 by 720
44*************************************************************
45Processing recording 1: '/var/lib/mythtv/recordings2/1151_20090325200000.mpg'
46*************************************************************
47File will be re-encoded using profile HQ
482009-03-31 13:21:38.130 Opening /var/lib/mythtv/recordings2/1151_20090325200000.mpg
49Input #0, mpegts, from '/var/lib/mythtv/recordings2/1151_20090325200000.mpg':
50  Duration: 01:01:57.3, start: 20561.931622, bitrate: 14439 kb/s
51    Stream #0.0[0x31]: Video: mpeg2video, yuv420p, 1280x720 [PAR 1:1 DAR 16:9], 45000 kb/s, 59.94 tb(r)
52    Stream #0.1[0x34]: Audio: ac3, 48000 Hz, 5:1, 384 kb/s
532009-03-31 13:21:38.142 Calculating frame count
542009-03-31 13:23:18.865 frames = 222793
552009-03-31 13:23:18.865 duration = 3716
562009-03-31 13:23:18.881 Extracting details from: 1151_20090325200000.mpg
572009-03-31 13:23:18.882 chanid: 1151 starttime:2009-03-25T20:00:00
582009-03-31 13:23:18.894 File is a Myth recording.
592009-03-31 13:23:18.895 cutframes = 74707
602009-03-31 13:23:18.895 cutduration = 1246
61ICE default IO error handler doing an exit(), pid = 6381, errno = 32
62************************************************************
63ERROR: Failed while running mytharchivehelper to get stream information from "/var/lib/mythtv/recordings2/1151_20090325200000.mpg"
64************************************************************
65
66chmod: changing permissions of `/var/lib/mytharchive/temp/': Operation not permitted
67Terminated