Ticket #7876: After_Thin_Man_mythburn.log

File After_Thin_Man_mythburn.log, 3.7 KB (added by Jerry Kelley <jerry.bruce@…>, 11 years ago)

myth burn log showing failure

Line 
1Using simple_fix_rtl
2mythburn.py (0.1.20080325-1-fixes) starting up...
3script path:/usr/share/mythtv/mytharchive/scripts
4myth share path:/usr/share/mythtv
5passed job file: /media/hda3/mythtemp/config/mydata.xml
6passed progress log file: /media/hda3/mythtemp/logs/progress.log
7mythburn.py (0.1.20080325-1-fixes) starting up...
8Found 1 CPUs
9Obtaining MythTV settings from MySQL database for hostname jerrymythbox
10temppath: /media/hda3/mythtemp/work
11logpath:  /media/hda3/mythtemp/logs
12Setting process priority to 17
13Processing Mythburn job number 1.
14Options - mediatype = 0, doburn = 1, createiso = 0, erasedvdrw = 0
15          savefilename = ''
16Looking for: /usr/share/mythtv/mytharchive/themes/MythCenter/theme.xml
17Loading font 0, /usr/share/mythtv/FreeSans.ttf size 18
18Loading font 1, /usr/share/mythtv/FreeSans.ttf size 15
19Loading font 2, /usr/share/mythtv/FreeSans.ttf size 13
20wantIntro: 1, wantMainMenu: 1, wantChapterMenu:1, wantDetailsPage: 0
21Final DVD Video format will be ntsc
22There are 1 files to process
23Pre-processing file '/media/sdc1/recordings/1128_20091231194500.mpg' of type 'recording'
242010-01-01 23:11:30.544 Opening /media/sdc1/recordings/1128_20091231194500.mpg
25Input #0, mpeg, from '/media/sdc1/recordings/1128_20091231194500.mpg':
26  Duration: 01:59:56.6, start: 0.189267, bitrate: 5189 kb/s
27    Stream #0.0[0x1e0]: Video: mpeg2video, yuv420p, 720x480 [PAR 8:9 DAR 4:3], 6000 kb/s, 29.97 tb(r)
28    Stream #0.1[0x1c0]: Audio: mp2, 48000 Hz, stereo, 384 kb/s
292010-01-01 23:11:30.603 duration = 7196
302010-01-01 23:11:30.603 Extracting details from: 1128_20091231194500.mpg
312010-01-01 23:11:30.605 chanid: 1128 starttime:2009-12-31T19:45:00
322010-01-01 23:11:30.612 File is a Myth recording.
332010-01-01 23:11:30.616 cutframes = 0
342010-01-01 23:11:30.616 cutduration = 0
35streaminfo.xml :-
36<?xml version="1.0" ?><!DOCTYPE FILEINFO><file cutduration="7196" duration="7196" filename="/media/sdc1/recordings/1128_20091231194500.mpg" type="mpeg">   
37        <streams count="2">       
38                <video aspectratio="1.33333" bitrate="6000000" codec="mpeg2video" ffmpegindex="0" fps="29.97" height="480" id="480" start_time="0.36037" streamindex="0" width="720"/>       
39                <audio bitrate="384000" channels="2" codec="mp2" ffmpegindex="1" id="448" language="N/A" samplerate="48000" start_time="0.17034" streamindex="1"/>       
40        </streams>   
41</file>
42          After the Thin Man (Manual Record)
43Video resolution is 720 by 480
44*************************************************************
45Processing file /media/sdc1/recordings/1128_20091231194500.mpg of type recording
46*************************************************************
47File type is 'mpeg'
48Video codec is 'mpeg2video'
492010-01-01 23:11:31.091 Opening /media/sdc1/recordings/1128_20091231194500.mpg
50Input #0, mpeg, from '/media/sdc1/recordings/1128_20091231194500.mpg':
51  Duration: 01:59:56.6, start: 0.189267, bitrate: 5189 kb/s
52    Stream #0.0[0x1e0]: Video: mpeg2video, yuv420p, 720x480 [PAR 8:9 DAR 4:3], 6000 kb/s, 29.97 tb(r)
53    Stream #0.1[0x1c0]: Audio: mp2, 48000 Hz, stereo, 384 kb/s
542010-01-01 23:11:31.145 Calculating frame count
552010-01-01 23:12:46.476 frames = 215678
562010-01-01 23:12:46.486 duration = 7196
572010-01-01 23:12:46.487 Extracting details from: 1128_20091231194500.mpg
582010-01-01 23:12:46.494 chanid: 1128 starttime:2009-12-31T19:45:00
592010-01-01 23:12:46.531 File is a Myth recording.
602010-01-01 23:12:46.537 cutframes = 0
612010-01-01 23:12:46.537 cutduration = 0
62ICE default IO error handler doing an exit(), pid = 4002, errno = 32
63************************************************************
64ERROR: Failed while running mytharchivehelper to get stream information from "/media/sdc1/recordings/1128_20091231194500.mpg"
65************************************************************
66
67Terminated