Ticket #9371: mythburn.log

File mythburn.log, 6.9 KB (added by Larry Johnson <keepitsimpleengineer@…>, 11 years ago)
Line 
1Using simple_fix_rtl
2mythburn.py (0.1.20101206-1) starting up...
3script path:/usr/share/mythtv/mytharchive/scripts
4myth share path:/usr/share/mythtv
5passed job file: /home/mytharchive/temp/config/mydata.xml
6passed progress log file: /home/mytharchive/temp/logs/progress.log
7mythburn.py (0.1.20101206-1) starting up...
8QSqlDatabasePrivate::removeDatabase: connection 'DBManager0' is still in use, all queries will cease to work.
9Found 2 CPUs
10Obtaining MythTV settings from MySQL database for hostname KISE-055
11temppath: /home/mytharchive/temp/work
12logpath:  /home/mytharchive/temp/logs
13Setting process priority to 17
14Processing Mythburn job number 1.
15Options - mediatype = 0, doburn = 0, createiso = 1, erasedvdrw = 0
16          savefilename = ''
17Looking for: /usr/share/mythtv/mytharchive/themes/Compact/theme.xml
18Loading font 0, /usr/share/mythtv/fonts/FreeSans.ttf size 19
19Loading font 1, /usr/share/mythtv/fonts/FreeSans.ttf size 15
20Loading font 2, /usr/share/mythtv/fonts/FreeSans.ttf size 13
21wantIntro: 1, wantMainMenu: 1, wantChapterMenu:0, wantDetailsPage: 0
22Final DVD Video format will be ntsc
23There are 2 files to process
24Pre-processing recording 1: '/pvr/mythtv/recordings/1062_20101104040000.mpg'
252010-12-13 10:41:23.351 getFileInfo(): Opening '/pvr/mythtv/recordings/1062_20101104040000.mpg'
26Input #0, mpegts, from '/pvr/mythtv/recordings/1062_20101104040000.mpg':
27  Duration: 01:00:27.33, start: 23859.446278, bitrate: 2938 kb/s
28    Stream #0.0[0x41]: Video: mpeg2video, yuv420p, 704x480 [PAR 10:11 DAR 4:3], 10000 kb/s, 29.97 fps, 29.97 tbr, 90k tbn, 59.94 tbc
29    Stream #0.1[0x44](eng): Audio: ac3, 48000 Hz, stereo, s16, 192 kb/s
302010-12-13 10:41:23.368 duration = 3627
312010-12-13 10:41:23.368 Extracting details from: 1062_20101104040000.mpg
322010-12-13 10:41:23.369 chanid: 1062 starttime:2010-11-04T04:00:00
332010-12-13 10:41:23.373 File is a MythTV recording.
342010-12-13 10:41:23.376 cutframes = 0
352010-12-13 10:41:23.376 cutduration = 0
36QSqlDatabasePrivate::removeDatabase: connection 'DBManager0' is still in use, all queries will cease to work.
37streaminfo.xml :-
38<?xml version="1.0" ?><!DOCTYPE FILEINFO><file cutduration="3627" duration="3627" filename="/pvr/mythtv/recordings/1062_20101104040000.mpg" type="mpegts">   
39        <streams count="2">       
40                <video aspectratio="1.33333" bitrate="10000000" codec="mpeg2video" ffmpegindex="0" fps="29.97" height="480" id="65" start_time="2147.396613" streamindex="0" width="704"/>       
41                <audio bitrate="192000" channels="2" codec="ac3" ffmpegindex="1" id="68" language="eng" samplerate="48000" start_time="2147.350165" streamindex="1"/>       
42        </streams>   
43</file>
44          Frontline
45Video resolution is 704 by 480
46Pre-processing recording 2: '/pvr/mythtv/livetv/1061_20101102220000.mpg'
472010-12-13 10:41:23.908 getFileInfo(): Opening '/pvr/mythtv/livetv/1061_20101102220000.mpg'
48Input #0, mpegts, from '/pvr/mythtv/livetv/1061_20101102220000.mpg':
49  Duration: 01:00:13.07, start: 74548.888078, bitrate: 12493 kb/s
50    Stream #0.0[0x31]: Video: mpeg2video, yuv420p, 1280x720 [PAR 1:1 DAR 16:9], 90000 kb/s, 59.96 fps, 59.94 tbr, 90k tbn, 119.88 tbc
51    Stream #0.1[0x34](eng): Audio: ac3, 48000 Hz, stereo, s16, 320 kb/s
522010-12-13 10:41:23.932 duration = 3613
532010-12-13 10:41:23.932 Extracting details from: 1061_20101102220000.mpg
542010-12-13 10:41:23.934 chanid: 1061 starttime:2010-11-02T22:00:00
552010-12-13 10:41:23.938 File is a MythTV recording.
562010-12-13 10:41:23.940 cutframes = 13083
572010-12-13 10:41:23.940 cutduration = 218
58QSqlDatabasePrivate::removeDatabase: connection 'DBManager0' is still in use, all queries will cease to work.
59streaminfo.xml :-
60<?xml version="1.0" ?><!DOCTYPE FILEINFO><file cutduration="3395" duration="3613" filename="/pvr/mythtv/livetv/1061_20101102220000.mpg" type="mpegts">   
61        <streams count="2">       
62                <video aspectratio="1.77778" bitrate="90000000" codec="mpeg2video" ffmpegindex="0" fps="59.9401" height="720" id="49" start_time="6709.451312" streamindex="0" width="1280"/>       
63                <audio bitrate="320000" channels="2" codec="ac3" ffmpegindex="1" id="52" language="eng" samplerate="48000" start_time="6709.399927" streamindex="1"/>       
64        </streams>   
65</file>
66          Frontline
67Video resolution is 1280 by 720
68*************************************************************
69Processing recording 1: '/pvr/mythtv/recordings/1062_20101104040000.mpg'
70*************************************************************
712010-12-13 10:41:24.435 getFileInfo(): Opening '/pvr/mythtv/recordings/1062_20101104040000.mpg'
72Input #0, mpegts, from '/pvr/mythtv/recordings/1062_20101104040000.mpg':
73  Duration: 01:00:27.33, start: 23859.446278, bitrate: 2938 kb/s
74    Stream #0.0[0x41]: Video: mpeg2video, yuv420p, 704x480 [PAR 10:11 DAR 4:3], 10000 kb/s, 29.97 fps, 29.97 tbr, 90k tbn, 59.94 tbc
75    Stream #0.1[0x44](eng): Audio: ac3, 48000 Hz, stereo, s16, 192 kb/s
762010-12-13 10:41:24.451 Calculating frame count
772010-12-13 10:41:56.466 frames = 108693
782010-12-13 10:41:56.466 duration = 3626
792010-12-13 10:41:56.466 Extracting details from: 1062_20101104040000.mpg
802010-12-13 10:41:56.521 chanid: 1062 starttime:2010-11-04T04:00:00
812010-12-13 10:41:56.545 File is a MythTV recording.
822010-12-13 10:41:56.548 cutframes = 0
832010-12-13 10:41:56.548 cutduration = 0
84QSqlDatabasePrivate::removeDatabase: connection 'DBManager0' is still in use, all queries will cease to work.
85streaminfo.xml :-
86<?xml version="1.0" ?><!DOCTYPE FILEINFO><file cutduration="3626" duration="3626" filename="/pvr/mythtv/recordings/1062_20101104040000.mpg" type="mpegts">   
87        <streams count="2">       
88                <video aspectratio="1.33333" bitrate="10000000" codec="mpeg2video" ffmpegindex="0" fps="29.97" height="480" id="65" start_time="2147.396613" streamindex="0" width="704"/>       
89                <audio bitrate="192000" channels="2" codec="ac3" ffmpegindex="1" id="68" language="eng" samplerate="48000" start_time="2147.350165" streamindex="1"/>       
90        </streams>   
91</file>
92Preferred audio languages eng and eng
93Video id: 0x41, Audio1: [1] 0x44 (AC3, eng), Audio2: [-1] - 0x-1 (N/A, N/A)
94Using Project-X to demux file
95Preferred audio languages eng and eng
96Video id: 0x41, Audio1: [1] 0x44 (AC3, eng), Audio2: [-1] - 0x-1 (N/A, N/A)
97Didn't find any subtitle elements in stream info file.
98projectx -id 0x41,0x44 -out "/home/mytharchive/temp/work/1" -name "1062_20101104040000" "/pvr/mythtv/recordings/1062_20101104040000.mpg"
99sh: projectx: not found
100Failed while running Project-X to cut commercials and/or demux an mpeg2 file.
101Result: 127, Command was projectx -id 0x41,0x44 -out "/home/mytharchive/temp/work/1" -name "1062_20101104040000" "/pvr/mythtv/recordings/1062_20101104040000.mpg"
102************************************************************
103ERROR: Failed to run Project-X to demux file
104************************************************************
105
106chmod: changing permissions of `/home/mytharchive/temp/': Operation not permitted
107Terminated