Custom Query (13436 matches)

Filters
 
Or
 
  
 
Columns

Show under each result:


Results (1 - 3 of 13436)

1 2 3 4 5 6 7 8 9 10 11
Ticket Resolution Summary Owner Reporter
#1722 invalid ATrpms stable packages include DVB-T patch which breaks mpeg2 transcoding Axel.Thimm@… lennier76@…
Description

I've never submitted a ticket before so apologies in advance if something here is inappropriate. Somewhere between changeset 9486 and changeset 9656 something changed in the recording of DVB streams. Possibly this is related to the DVB Radio changes that I've seen discussed.

Here in Australia at least, the result seems to be additional streams being added to the resulting mpeg file, which appear to cause lossless transcoding to fail with a 'No more queue slots' error.

Two examples from the backend log follow. The first shows an additional stream #0.2 flagged as mpeg2 video at 90000 fps (!). As far as I'm aware from previous recordings only the first two streams are valid video and audio.

2006-04-23 21:54:23.224 Input #0, mpegts, from '/video/recordings/2054_200604211
35900.mpg':
2006-04-23 21:54:23.227   Duration: N/A, bitrate: N/A
2006-04-23 21:54:23.230   Stream #0.0[0xa1](eng), 25.00 fps(r): Video: mpeg2vide
o, yuv420p, 720x576, 6000 kb/s
2006-04-23 21:54:23.236   Stream #0.1[0x51](eng): Audio: mp2, 48000 Hz, stereo,
192 kb/s
2006-04-23 21:54:23.240   Stream #0.2[0x29](eng), 90000.00 fps(r): Video: mpeg2v
ideo
2006-04-23 21:54:25.351 No more queue slots!

This second example is from a recording which actually does have additional streams, in this case two audio streams. The additional 'spurious' stream is #0.3 flagged as mp1 audio at 32kb/s. The same error results when lossless transcoding is attempted.

2006-04-24 11:45:17.578 Input #0, mpegts, from '/video/recordings/2045_200604232
25800.mpg':
2006-04-24 11:45:17.580   Duration: N/A, bitrate: N/A
2006-04-24 11:45:17.587   Stream #0.0[0x200], 25.00 fps(r): Video: mpeg2video, y
uv420p, 704x576, 12000 kb/s
2006-04-24 11:45:17.592   Stream #0.1[0x28a](eng): Audio: mp2, 48000 Hz, stereo,
 256 kb/s
2006-04-24 11:45:17.594   Stream #0.2[0x28b](eng): Audio: ac3, 48000 Hz, stereo,
 256 kb/s
2006-04-24 11:45:17.596   Stream #0.3[0x240]: Audio: mp1, 32 kb/s
2006-04-24 11:45:26.712 No more queue slots!

Reading the recent commits and changeset logs leads me to guess that perhaps this is an unintended side effect of the DVB radio patches, which occured within the changeset range where the problem manifested. It may well be peculiar to Australian DVB broadcasts, which I don't think currently have DVB radio, but may perhaps have something that confuses the DVB radio stream handling stuff in Myth.

If further information is required please let me know.

Cheers,

Dennis

#13293 fixed Parse config.xml as an XML document Bill Meek <billmeek@…> Nick Morrott
Description

The Perl bindings read the lines of config.xml as plain text strings, extracting the values of desired elements using matching (m##) and regex captures.

Ideally we would parse the document as XML and extract values directly from the data structure created by the XML parser.

Depending on the XML library(ies) used, this would also permit the configuration file to be validated against a suitable DTD/Schema.

#13643 fixed MacOS Python2.6 hard code breaks python bindings / metadatalookup Bill Meek <billmeek@…> John Hoyt
Description

There is a hard code to python2.6 in

  • mythtv/programs/mythbackend/main.cpp
  • mythtv/programs/mythfrontend/main.cpp
  • mythtv/programs/mythmetadatalookup/main.cpp

The suspect line in each file is

QString("%1/../Resources/lib/python2.6/site-packages:%2")

This should either be modified to python (per the attached path) or worked out to automatically extract the compile time python version.

1 2 3 4 5 6 7 8 9 10 11
Note: See TracQuery for help on using queries.