Opened 11 years ago

Closed 11 years ago

#4711 closed defect (duplicate)

Audio playback problem with alsa and 8000 Hz, 8bit mono audio

Reported by: stuartm Owned by: Janne Grunau
Priority: minor Milestone: 0.21
Component: mythtv Version: head
Severity: low Keywords: ALSA
Cc: Ticket locked: no

Description

Audio is 64 kb/s mono, sounds like a helicopter but works under ffplay.

Duration: 00:00:11.0, start: 0.000000, bitrate: 11700 kb/s Stream #0.0(eng): Video: mjpeg, yuvj420p, 848x480, 30.00 fps(r) Stream #0.1(eng): Audio: pcm_u8, 8000 Hz, mono, 64 kb/s

Change History (4)

comment:1 Changed 11 years ago by Isaac Richards

Milestone: 0.210.22
Status: newinfoneeded_new

Need repro info/steps.

comment:2 Changed 11 years ago by stuartm

Milestone: 0.220.21
Status: infoneeded_newnew

Janne already has a copy of this sample, but so that others can take a look: http://www.miffteevee.co.uk/filebin/mjpeg_test_sample.mov

Shifting this back to 0.21 on the off chance that someone does get a moment to look at the issue. The video is similar to that produced by many digital cameras so it's not an uncommon source.

comment:3 Changed 11 years ago by Janne Grunau

Keywords: ALSA added
Summary: Audio playback problem with MJPEG fileAudio playback problem with alsa and 8000 Hz, 8bit mono audio

sample has only disturbed audio with alsa audio out, probably a regression from the multi channel audio commit.

comment:4 Changed 11 years ago by Janne Grunau

Resolution: duplicate
Status: newclosed

#4711 is a duplicate of #4764

Note: See TracTickets for help on using tickets.