Opened 9 years ago

Closed 9 years ago

Last modified 7 years ago

#9114 closed defect (Invalid)

MythVideo not playing WebM

Reported by: russell@… Owned by: robertm
Priority: minor Milestone: unknown
Component: MythTV - Video Playback Version: Master Head
Severity: medium Keywords: webm
Cc: Ticket locked: no

Description

When I select a WebM video file in MythVideo?, I get a "Couldn't open decoder" error.

The video plays in VLC. I don't think it's the file itself.

mythfrontend.log:

2010-10-19 17:51:16.007 TV: Attempting to change from None to WatchingVideo
2010-10-19 17:51:16.237 AudioPlayer: Disabling Audio, params(0,2,44100)
2010-10-19 17:51:16.240 Launching: ps -ae | grep pulseaudio > /dev/null
2010-10-19 17:51:16.263 PID 1613: launched
2010-10-19 17:51:16.349 PID 1613: exited: status=256, result=1
2010-10-19 17:51:16.398 AudioOutput Error: Aborting Audio Reconfigure. Invalid audio parameters ch 2 fmt 0 @ 44100Hz
2010-10-19 17:51:16.398 AudioPlayer: Disabling Audio, reason is: Aborting Audio Reconfigure. Invalid audio parameters ch 2 fmt 0 @ 44100Hz
2010-10-19 17:51:16.398 playCtx, Error: Aborting Audio Reconfigure. Invalid audio parameters ch 2 fmt 0 @ 44100Hz
2010-10-19 17:51:17.339 AFD Warning: ScanATSCCaptionStreams() called with no PMT
2010-10-19 17:51:17.339 [vp8 @ 0x7f59d29015c0]Edge emulation not supported
2010-10-19 17:51:17.339 AFD Error: Could not open codec 0x7f59aaaea450, id(VP8) type(Video) aborting. reason -1163346256
2010-10-19 17:51:17.339 AudioPlayer: Disabling Audio, params(0,-1,-1)
2010-10-19 17:51:17.339 Launching: ps -ae | grep pulseaudio > /dev/null
2010-10-19 17:51:17.363 PID 1619: launched
2010-10-19 17:51:17.450 PID 1619: exited: status=256, result=1
2010-10-19 17:51:17.491 AudioOutput Error: Aborting Audio Reconfigure. Invalid audio parameters ch -1 fmt 0 @ -1Hz
2010-10-19 17:51:17.491 AudioPlayer: Disabling Audio, reason is: Aborting Audio Reconfigure. Invalid audio parameters ch -1 fmt 0 @ -1Hz
2010-10-19 17:51:17.491 Couldn't open decoder for: /home/pub/Video/torrents/Kung Fu Panda.webm
2010-10-19 17:51:17.491 Unable to open video file.
2010-10-19 17:51:37.524 playCtx, Error: StartPlaying() Failed to start player

Details of the file to be decoded:

General
Complete name                    : Kung Fu Panda.webm
Format                           : Matroska
File size                        : 691 MiB
Duration                         : 1h 28mn
Overall bit rate                 : 1 095 Kbps
Writing application              : Lavf52.73.0
Writing library                  : Lavf52.73.0

Video
ID                               : 1
Format                           : V_VP8
Codec ID                         : V_VP8
Duration                         : 1h 28mn
Bit rate                         : 785 Kbps
Width                            : 716 pixels
Height                           : 432 pixels
Display aspect ratio             : 2.35:1
Frame rate                       : 25.000 fps
Bits/(Pixel*Frame)               : 0.102
Stream size                      : 495 MiB (72%)

Audio
ID                               : 2
Format                           : Vorbis
Format settings, Floor           : 1
Codec ID                         : A_VORBIS
Duration                         : 1h 28mn
Bit rate mode                    : Constant
Bit rate                         : 288 Kbps
Channel(s)                       : 6 channels
Sampling rate                    : 48.0 KHz
Stream size                      : 182 MiB (26%)
Writing library                  : libVorbis 20090709 (UTC 2009-07-09)

Change History (4)

comment:1 Changed 9 years ago by robertm

Component: Plugin - MythVideoMythTV - Video Playback
Milestone: 0.24unknown
Resolution: Invalid
Status: newclosed

Not MythVideo?, and your sample is unsupported in our version of libav*

Also, please see the ticket howto, do not set milestones on tickets.

comment:2 Changed 7 years ago by archive@…

How did you get it to work? does MythTV have WebM Compatibility for transcoding now too?

comment:3 Changed 7 years ago by markk

ref 64479827a3a9

comment:4 Changed 7 years ago by russell@…

All working now. Thank you.

MythTV Version : v0.25pre-3966-g30a6a74
MythTV Branch : master
Network Protocol : 70
Library API : 0.25.20111207-1
Note: See TracTickets for help on using tickets.