Ticket #11213: mythtransform.log

File mythtransform.log, 5.2 KB (added by mythtv@…, 8 years ago)
Line 
12012-11-02 09:22:48.926105 C  mythtranscode version: fixes/0.26 [v0.26.0-28-ge3087dd] www.mythtv.org
22012-11-02 09:22:48.926151 C  Qt version: compile: 4.8.1, runtime: 4.8.1
32012-11-02 09:22:48.926164 N  Enabled verbose msgs:  general
42012-11-02 09:22:48.926202 N  Setting Log Level to LOG_INFO
52012-11-02 09:22:48.927034 I  Added logging to the console
62012-11-02 09:22:48.928800 I  Setup Interrupt handler
72012-11-02 09:22:48.928832 I  Setup Terminated handler
82012-11-02 09:22:48.928856 I  Setup Segmentation fault handler
92012-11-02 09:22:48.928885 I  Setup Aborted handler
102012-11-02 09:22:48.928906 I  Setup Bus error handler
112012-11-02 09:22:48.928941 I  Setup Floating point exception handler
122012-11-02 09:22:48.928968 I  Setup Illegal instruction handler
132012-11-02 09:22:48.929005 I  Setup Real-time signal 0 handler
142012-11-02 09:22:48.929113 N  Using runtime prefix = /usr
152012-11-02 09:22:48.929160 N  Using configuration directory = /home/jd/.mythtv
162012-11-02 09:22:48.929351 I  Assumed character encoding: de_DE.UTF-8
172012-11-02 09:22:48.930511 I  Using localhost value of vdr
182012-11-02 09:22:49.006675 N  Setting QT default locale to DE_DE
192012-11-02 09:22:49.006840 I  Current locale DE_DE
202012-11-02 09:22:49.006981 N  Reading locale defaults from /usr/share/mythtv//locales/de_de.xml
212012-11-02 09:22:49.025570 I  Loading de translation for module mythfrontend
222012-11-02 09:22:49.030755 N  Transcoding from /mnt/media02/mythtv/recordings/1018_20121031140500.mpg to 1018_20121031140500.mpg
232012-11-02 09:22:49.170569 I  Added logging to mythlogserver at TCP:35327
242012-11-02 09:22:49.331510 I  Opening /mnt/media02/mythtv/recordings/1018_20121031140500.mpg
252012-11-02 09:22:49.354874 I  PES packet size mismatch
262012-11-02 09:22:49.354891 I  PES packet size mismatch
272012-11-02 09:22:49.354935 I  Input #0, mpegts, from '/mnt/media02/mythtv/recordings/1018_20121031140500.mpg':
282012-11-02 09:22:49.354954 I    Duration: 01:32:23.92, start: 7358.115533, bitrate: 2902 kb/s
292012-11-02 09:22:49.355027 I      Stream #0:0[0x1d1]: Video: mpeg2video (Main), yuv420p, 720x576 [SAR 16:15 DAR 4:3], 15000 kb/s, 25 fps, 25 tbr, 90k tbn, 50 tbc
302012-11-02 09:22:49.355052 I      Stream #0:1[0x1d2](deu): Audio: mp2, 48000 Hz, stereo, s16, 192 kb/s
312012-11-02 09:22:49.355065 I      Stream #0:2[0x1d7](deu): Subtitle: dvb_teletext
322012-11-02 09:22:49.355093 E  Skipping unsupported codec 3 on stream 2
332012-11-02 09:22:49.358961 I  #0 PTS:02:02:38.875 Delta: 0.0ms queue: 15
342012-11-02 09:22:49.359018 I  #1 PTS:02:02:38.852 Delta: 22.7667ms queue: 2
352012-11-02 09:22:49.410764 I  PES packet size mismatch
362012-11-02 09:22:49.410945 I  PES packet size mismatch
372012-11-02 09:22:49.410958 I  PES packet size mismatch
382012-11-02 09:22:49.459905 I  PES packet size mismatch
392012-11-02 09:22:50.126869 I  PES packet size mismatch
402012-11-02 09:22:50.127025 I  PES packet size mismatch
412012-11-02 09:22:50.644863 I  Del map found 0 at 16723 (16723)
422012-11-02 09:22:50.678901 I  Converting frame #0 from B to I
432012-11-02 09:22:50.697834 I  Converting frame #1 from B to I
442012-11-02 09:22:50.722220 I  Mux rate: 15,44 Mbit/s
452012-11-02 09:22:52.667597 I  Del map found 1 at 23276 (23276)
462012-11-02 09:22:52.722352 I  Converting frame #0 from B to I
472012-11-02 09:22:52.759935 I  Converting frame #1 from B to I
482012-11-02 09:22:53.870695 I  PES packet size mismatch
492012-11-02 09:22:55.530171 I  Del map found 0 at 34501 (34501)
502012-11-02 09:22:55.570565 I  Converting frame #1 from B to I
512012-11-02 09:22:55.603775 I  Converting frame #2 from B to I
522012-11-02 09:22:55.636452 I  Converting frame #3 from P to I
532012-11-02 09:23:07.287438 I  Del map found 1 at 60851 (60851)
542012-11-02 09:23:07.336158 I  Converting frame #0 from B to I
552012-11-02 09:23:07.371999 I  Converting frame #1 from B to I
562012-11-02 09:23:09.250309 I  PES packet size mismatch
572012-11-02 09:23:09.554063 I  Del map found 0 at 72203 (72203)
582012-11-02 09:23:09.601667 I  Converting frame #0 from B to I
592012-11-02 09:23:09.634977 I  Converting frame #1 from B to I
602012-11-02 09:23:09.742864 I  PES packet size mismatch
612012-11-02 09:23:13.634678 I  PES packet size mismatch
622012-11-02 09:23:15.206839 I  PES packet size mismatch
632012-11-02 09:23:20.544586 I  PES packet size mismatch
642012-11-02 09:23:25.004728 I  Del map found 1 at 105479 (105479)
652012-11-02 09:23:25.066328 I  Converting frame #0 from B to I
662012-11-02 09:23:25.092623 I  Converting frame #1 from B to I
672012-11-02 09:23:31.952736 I  PES packet size mismatch
682012-11-02 09:23:31.952798 I  PES packet size mismatch
692012-11-02 09:23:31.969594 I  Generating Keyframe Index
702012-11-02 09:23:31.969623 I  Opening 1018_20121031140500.mpg
712012-11-02 09:23:32.017200 I  Input #0, mpeg, from '1018_20121031140500.mpg':
722012-11-02 09:23:32.017241 I    Duration: 37:17:14.69, start: 0.304000, bitrate: 49 kb/s
732012-11-02 09:23:32.017332 I      Stream #0:0[0x1e0]: Video: mpeg2video (Main), yuv420p, 720x576 [SAR 64:45 DAR 16:9], 15000 kb/s, 25 fps, 25 tbr, 90k tbn, 50 tbc
742012-11-02 09:23:32.017363 I      Stream #0:1[0x1c0]: Audio: mp2, 48000 Hz, stereo, s16, 192 kb/s
752012-11-02 09:23:38.909385 I  Adjusting PTS forward
762012-11-02 09:23:38.910270 N  Transcode Completed
772012-11-02 09:23:38.918084 N  Transcoding /mnt/media02/mythtv/recordings/1018_20121031140500.mpg done