Ticket #9652: transcode.txt

File transcode.txt, 5.4 KB (added by managementboy@…, 10 years ago)

log output while starting a transcode

Line 
12011-03-10 03:10:00.985 TVRec(1): Changing from RecordingOnly to None
22011-03-10 03:10:01.019 Updating status for "Terra X":"Kampf um Germanien" on cardid 1 (Recording => Recorded)
32011-03-10 03:10:01.057 Finished recording Terra X "Kampf um Germanien": channel 30014
42011-03-10 03:10:01.258 Finished recording Terra X "Kampf um Germanien": channel 30014
52011-03-10 03:10:01.281 Reschedule requested for id 0.
62011-03-10 03:10:32.151 JobQueue: Transcode Starting for "Terra X":"Teil 1": Autodetect (3.4 GB)
72011-03-10 03:10:32.206 MainServer::ANN Monitor
82011-03-10 03:10:32.283 adding: elkin as a client (events: 0)
92011-03-10 03:10:32.367 Scheduled 101 items in 31.1 = 2.44 match + 28.62 place
102011-03-10 03:10:32.416 MainServer::ANN Monitor
112011-03-10 03:10:32.466 adding: elkin as a client (events: 1)
122011-03-10 03:10:32.501 Using runtime prefix = /usr
132011-03-10 03:10:32.557 Using configuration directory = /home/mythtv/.mythtv
142011-03-10 03:10:32.616 Empty LocalHostName.
152011-03-10 03:10:32.673 Using localhost value of elkin
162011-03-10 03:10:32.731 New DB connection, total: 1
172011-03-10 03:10:32.791 Connected to database 'mythconverg' at host: localhost
182011-03-10 03:10:32.851 Closing DB connection named 'DBManager0'
192011-03-10 03:10:32.906 Connected to database 'mythconverg' at host: localhost
202011-03-10 03:10:32.932 Current locale DE_US
212011-03-10 03:10:32.956 No locale defaults file for DE_US, skipping
222011-03-10 03:10:33.003 Loading de translation for module mythfrontend
232011-03-10 03:10:33.039 Enabled verbose msgs: important
242011-03-10 03:10:33.066 Transcoding from /var/lib/mythtv/recordings4/30014_20110310020000.mpg to /var/lib/mythtv/recordings4/30014_20110310020000.mpg.tmp
252011-03-10 03:10:33.145 [mpeg2video @ 0x7f2500b934a0]mpeg_decode_postinit() failure
262011-03-10 03:10:33.164 [mpeg2video @ 0x7f2500b934a0]mpeg_decode_postinit() failure
272011-03-10 03:10:33.187 MythCoreContext: Connecting to backend server: 192.168.178.20:6543 (try 1 of 1)
282011-03-10 03:10:33.264 Using protocol version 64
292011-03-10 03:10:33.322 MainServer::ANN Monitor
302011-03-10 03:10:33.189 [mpeg2video @ 0x7f2500b934a0]mpeg_decode_postinit() failure
312011-03-10 03:10:33.355 adding: elkin as a client (events: 0)
322011-03-10 03:10:33.389 MainServer::ANN Monitor
332011-03-10 03:10:33.389 [mpeg2video @ 0x7f2500b934a0]mpeg_decode_postinit() failure
342011-03-10 03:10:33.422 adding: elkin as a client (events: 1)
352011-03-10 03:10:33.456 [mpeg2video @ 0x7f2500b934a0]mpeg_decode_postinit() failure
362011-03-10 03:10:33.488 [mpeg2video @ 0x7f2500b934a0]mpeg_decode_postinit() failure
372011-03-10 03:10:33.522 [mpeg2video @ 0x7f2500b934a0]mpeg_decode_postinit() failure
382011-03-10 03:10:33.555 [mpeg2video @ 0x7f2500b934a0]mpeg_decode_postinit() failure
392011-03-10 03:10:36.024 AFD: Opened codec 0x1309fd0, id(MPEG2VIDEO) type(Video)
402011-03-10 03:10:36.076 AFD: codec MP2 has 2 channels
412011-03-10 03:10:36.111 AFD: Opened codec 0x130a650, id(MP2) type(Audio)
422011-03-10 03:10:36.144 AFD: codec MP2 has 2 channels
432011-03-10 03:10:36.177 AFD: Opened codec 0x130acd0, id(MP2) type(Audio)
442011-03-10 03:10:36.230 Transcode: Looking for autodetect profile: Automatisch erkennen aus 576i
452011-03-10 03:10:36.261 New DB connection, total: 2
462011-03-10 03:10:36.294 Connected to database 'mythconverg' at host: localhost
472011-03-10 03:10:36.335 SampleRate: Attempted to add a rate 32000 Hz, which is not in the list of allowed rates.
482011-03-10 03:10:36.371 Transcode: Using autodetect profile: MPEG2
492011-03-10 03:10:36.402 Switching to MPEG-2 transcoder.
502011-03-10 03:10:36.591 Opening /var/lib/mythtv/recordings4/30014_20110310020000.mpg
512011-03-10 03:10:36.621 mpeg_decode_postinit() failure
522011-03-10 03:10:36.651 mpeg_decode_postinit() failure
532011-03-10 03:10:36.685 mpeg_decode_postinit() failure
542011-03-10 03:10:36.718 mpeg_decode_postinit() failure
552011-03-10 03:10:36.751 mpeg_decode_postinit() failure
562011-03-10 03:10:36.784 mpeg_decode_postinit() failure
572011-03-10 03:10:36.818 mpeg_decode_postinit() failure
582011-03-10 03:10:36.851 mpeg_decode_postinit() failure
592011-03-10 03:10:36.891 Input #0, mpegts, from '/var/lib/mythtv/recordings4/30014_20110310020000.mpg':
602011-03-10 03:10:36.926   Duration: 01:09:58.40, start: 92083.150589, bitrate: 6868 kb/s
612011-03-10 03:10:36.959     Stream #0.0[0x294]: Video: mpeg2video, yuv420p, 720x576 [PAR 64:45 DAR 16:9], 15000 kb/s, 36.54 fps, 25 tbr, 90k tbn, 50 tbc
622011-03-10 03:10:36.992     Stream #0.1[0x29e](deu): Audio: mp2, 48000 Hz, 2 channels, s16, 256 kb/s
632011-03-10 03:10:37.026     Stream #0.2[0x29f](mis): Audio: mp2, 48000 Hz, 2 channels, s16, 128 kb/s
642011-03-10 03:10:37.059     Stream #0.3[0x2a8](deu): Data: [0][0][0][0] / 0x0000
652011-03-10 03:10:37.092 Skipping unsupported codec 2 on stream 3
662011-03-10 03:10:37.126 Warning: partial frame found!
672011-03-10 03:10:37.159 Warning: partial frame found!
682011-03-10 03:10:37.192 Warning: partial frame found!
692011-03-10 03:10:37.225 Warning: partial frame found!
702011-03-10 03:10:37.259 Warning: partial frame found!
712011-03-10 03:10:37.292 Warning: partial frame found!
722011-03-10 03:10:37.325 Warning: partial frame found!
732011-03-10 03:10:37.359 Warning: partial frame found!
742011-03-10 03:10:37.393 #0 PTS:25:34:43.835 Delta: 0.0ms queue: 11
752011-03-10 03:10:37.425 #1 PTS:25:34:43.833 Delta: 2.44444ms queue: 2
762011-03-10 03:10:37.458 #2 PTS:25:34:43.822 Delta: 13.2111ms queue: 2
772011-03-10 03:11:36.444 Invalid timestamps stream=0, pts=10630, dts=8589934422, size=63883
782011-03-10 03:11:54.756 Inserting 2 I-Frames after #11