Ticket #8546: transcodefail.log

File transcodefail.log, 4.5 KB (added by robertm, 10 years ago)

normal verbosity transcode fail.

Line 
12010-06-09 07:11:49.162 Using runtime prefix = /usr
22010-06-09 07:11:49.162 Using configuration directory = /home/mythtv/.mythtv
32010-06-09 07:11:49.163 Empty LocalHostName.
42010-06-09 07:11:49.163 Using localhost value of Holmes
52010-06-09 07:11:49.163 Testing network connectivity to '192.168.0.99'
62010-06-09 07:11:49.173 New DB connection, total: 1
72010-06-09 07:11:49.182 Connected to database 'mythconverg' at host: 192.168.0.99
82010-06-09 07:11:49.185 Closing DB connection named 'DBManager0'
92010-06-09 07:11:49.185 Current locale C
102010-06-09 07:11:49.191 No locale defaults file for C, skipping
112010-06-09 07:11:49.192 Connected to database 'mythconverg' at host: 192.168.0.99
122010-06-09 07:11:49.209 Enabled verbose msgs: important
132010-06-09 07:11:49.212 Transcoding from /var/lib/mythtv/recordings2/202001_20100608205500.mpg to /var/lib/mythtv/recordings2/202001_20100608205500.mpg.tmp
142010-06-09 07:11:49.282 AFD: Opened codec 0x7c8500, id(MPEG2VIDEO) type(Video)
152010-06-09 07:11:49.282 AFD: codec AC3 has 6 channels
162010-06-09 07:11:49.282 AFD: Opened codec 0x7e8820, id(AC3) type(Audio)
172010-06-09 07:11:49.293 AFD: codec AC3 has 2 channels
182010-06-09 07:11:49.293 AFD: Opened codec 0x7e8e80, id(AC3) type(Audio)
192010-06-09 07:11:49.299 AudioOutput Error: Invalid channel count 6
202010-06-09 07:11:49.304 New DB connection, total: 2
212010-06-09 07:11:49.306 Connected to database 'mythconverg' at host: 192.168.0.99
222010-06-09 07:11:49.315 MythCoreContext: Connecting to backend server: 192.168.0.99:6543 (try 1 of 1)
232010-06-09 07:11:49.318 Using protocol version 57
242010-06-09 07:11:49.323 MainServer::ANN Monitor
252010-06-09 07:11:49.323 adding: Holmes as a client (events: 0)
262010-06-09 07:11:49.329 MainServer::ANN Monitor
272010-06-09 07:11:49.335 adding: Holmes as a client (events: 1)
282010-06-09 07:11:49.343 Honoring the cutlist while transcoding
292010-06-09 07:11:49.344 Cutlist        : 16015,48785-60022,94810-107516,128688-140404,161858-174804,197160-209205,232150-
302010-06-09 07:11:49.347 Original Length: 264223 frames
312010-06-09 07:11:49.347 New Length     : 187558 frames
322010-06-09 07:11:49.348 AudioOutput Error: Invalid channel count 6
332010-06-09 07:11:49.353 Transcode: Looking for autodetect profile: Autodetect from 720p
342010-06-09 07:11:49.354 New DB connection, total: 3
352010-06-09 07:11:49.359 Connected to database 'mythconverg' at host: 192.168.0.99
362010-06-09 07:11:49.390 SampleRate: Attempted to add a rate 32000 Hz, which is not in the list of allowed rates.
372010-06-09 07:11:49.392 Transcode: Using autodetect profile: MPEG2
382010-06-09 07:11:49.392 Switching to MPEG-2 transcoder.
392010-06-09 07:11:49.396 Opening /var/lib/mythtv/recordings2/202001_20100608205500.mpg
402010-06-09 07:11:49.413 Input #0, mpegts, from '/var/lib/mythtv/recordings2/202001_20100608205500.mpg':
412010-06-09 07:11:49.414   Duration: 01:13:29.02, start: 47325.109056, bitrate: 14320 kb/s
422010-06-09 07:11:49.414     Stream #0.0[0x800]: Video: mpeg2video, yuv420p, 1280x720 [PAR 1:1 DAR 16:9], 38810 kb/s, 59.92 fps, 59.94 tbr, 90k tbn, 119.88 tbc
432010-06-09 07:11:49.414     Stream #0.1[0x801](eng): Audio: ac3, 48000 Hz, 5.1, s16, 448 kb/s
442010-06-09 07:11:49.414     Stream #0.2[0x802](spa): Audio: ac3, 48000 Hz, stereo, s16, 192 kb/s
452010-06-09 07:11:49.421 #0 PTS:13:08:45.816 Delta: 0.0ms queue: 39
462010-06-09 07:11:49.421 #1 PTS:13:08:45.813 Delta: 3.74444ms queue: 2
472010-06-09 07:11:49.421 #2 PTS:13:08:45.800 Delta: 16.6556ms queue: 4
48Mux rate: 40.10 Mbit/s
492010-06-09 07:11:50.820 Inserting 0 I-Frames after #8
502010-06-09 07:11:52.084 Inserting 0 I-Frames after #2
512010-06-09 07:11:53.368 Inserting 0 I-Frames after #11
522010-06-09 07:11:54.640 Inserting 0 I-Frames after #5
532010-06-09 07:11:56.113 Inserting 0 I-Frames after #35
542010-06-09 07:11:56.761 Converting frame #12 from B to I
552010-06-09 07:11:56.783 Converting frame #13 from B to I
562010-06-09 07:11:56.805 Converting frame #14 from P to I
572010-06-09 07:11:56.805 expectedPTS != expectedDTS+ptsIncrement
582010-06-09 07:11:56.812 Transcoding /var/lib/mythtv/recordings2/202001_20100608205500.mpg failed
592010-06-09 07:11:56.815 Deleting /var/lib/mythtv/recordings2/202001_20100608205500.mpg.tmp
602010-06-09 07:11:56.821 Requesting delete for file 'myth://Default@192.168.0.99:6543/202001_20100608205500.mpg.tmp'.
612010-06-09 07:11:56.826 MainServer::ANN Playback
622010-06-09 07:11:56.832 adding: holmes as a client (events: 0)
63Error in my_thread_global_end(): 1 threads didn't exit
642010-06-09 07:12:01.988 JobQueue: Transcode Errored: Glee:Journey: Autodetect (exit status 247, job status was "Errored")
65