Opened 8 years ago

Closed 8 years ago

#9292 closed Bug Report (Duplicate)

matroska playback problems after commit 27316

Reported by: yianniv Owned by: robertm
Priority: minor Milestone: unknown
Component: Plugin - MythVideo Version: Master Head
Severity: medium Keywords:
Cc: Ticket locked: no

Description

My main BE+FE, running opensuse 11.2 x86_64, with vdpau and nvidia drivers 256.53, with digital audio passthrough, is having video playback problems after 27316 (27315 is the last commit without this problem).

I can play other mkv files (and avi files aren't affected at all) but after I try to play a specific set of files - without success - I cannot longer play any other mkv file. I have to restart the frontend to play them.

Another similar frontend (with analog sound if it makes any difference) doesn't exhibit the problem. Neither does a non-vdpau laptop.

I will attach the frontend log with -v playback,audio of the affected frontend. The last video is the problem one. After that, no other mkv will play unless I restart the frontend.

Also, here is the mediainfo report of the video in question (which used to play flawlessly before...)

General
Complete name                    : /myth/video/storage/Παιδικά/Ντόρα/D13-2-Ας παίξουμε κρυφτό.mkv
Format                           : Matroska
File size                        : 181 MiB
Duration                         : 24mn 1s
Overall bit rate                 : 1 053 Kbps
Writing application              : HandBrake rev0
Writing library                  : libmkv 0.6.4.1

Video
ID                               : 1
Format                           : AVC
Format/Info                      : Advanced Video Codec
Format profile                   : High@L3.0
Format settings, CABAC           : Yes
Format settings, ReFrames        : 4 frames
Format settings, GOP             : M=2, N=15
Muxing mode                      : Container profile=Unknown@3.0
Codec ID                         : V_MPEG4/ISO/AVC
Duration                         : 24mn 1s
Bit rate                         : 776 Kbps
Width                            : 704 pixels
Height                           : 576 pixels
Display aspect ratio             : 1.299
Frame rate mode                  : Variable
Frame rate                       : 25.000 fps
Standard                         : PAL
Color space                      : YUV
Chroma subsampling               : 4:2:0
Bit depth                        : 8 bits
Scan type                        : Progressive
Bits/(Pixel*Frame)               : 0.077
Stream size                      : 133 MiB (74%)
Writing library                  : x264 core 104
Encoding settings                : cabac=1 / ref=3 / deblock=1:0:0 / analyse=0x3:0x133 / me=umh / subme=9 / psy=1 / psy_rd=1,00:0,00 / mixed_ref=1 / me_range=16 / chroma_me=1 / trellis=1 / 8x8dct=1 / cqm=0 / deadzone=21,11 / fast_pskip=0 / chroma_qp_offset=-2 / threads=6 / sliced_threads=0 / nr=0 / decimate=1 / interlaced=0 / constrained_intra=0 / bframes=6 / b_pyramid=2 / b_adapt=2 / b_bias=0 / direct=3 / weightb=1 / open_gop=0 / weightp=2 / keyint=250 / keyint_min=25 / scenecut=40 / intra_refresh=0 / rc_lookahead=40 / rc=crf / mbtree=1 / crf=22,0 / qcomp=0,60 / qpmin=10 / qpmax=51 / qpstep=4 / ip_ratio=1,40 / aq=1:1,00
Color primaries                  : BT.601-6 525, BT.1358 525, BT.1700 NTSC, SMPTE 170M
Transfer characteristics         : BT.709-5, BT.1361
Matrix coefficients              : BT.601-6 525, BT.1358 525, BT.1700 NTSC, SMPTE 170M

Audio
ID                               : 2
Format                           : AC-3
Format/Info                      : Audio Coding 3
Mode extension                   : CM (complete main)
Codec ID                         : A_AC3
Duration                         : 24mn 1s
Bit rate mode                    : Constant
Bit rate                         : 256 Kbps
Channel(s)                       : 2 channels
Channel positions                : Front: L R
Sampling rate                    : 48.0 KHz
Bit depth                        : 16 bits
Stream size                      : 44.0 MiB (24%)
Language                         : Greek

Attachments (1)

mythfrontend.log (44.1 KB) - added by yianniv 8 years ago.

Download all attachments as: .zip

Change History (3)

Changed 8 years ago by yianniv

Attachment: mythfrontend.log added

comment:1 Changed 8 years ago by yianniv

I forgot:

MythTV Version   : 27316M
MythTV Branch    : trunk
Network Protocol : 64
Library API      : 0.25.20101120-1
QT Version       : 4.6.3
Options compiled in:
 linux release using_alsa using_oss using_pulse using_pulseoutput using_backend using_bindings_perl using_bindings_python using_dvb using_frontend using_hdpvr using_iptv using_ivtv using_libfftw3 using_lirc using_mheg using_opengl_video using_opengl_vsync using_qtdbus using_qtwebkit using_v4l using_x11 using_xrandr using_xv using_xvmc using_xvmc_vld using_xvmcw using_bindings_perl using_bindings_python using_mythtranscode using_opengl using_vdpau using_ffmpeg_threads using_live using_mheg

comment:2 Changed 8 years ago by robertm

Resolution: Duplicate
Status: newclosed

Already reported in #9150.

Note: See TracTickets for help on using tickets.